Синяя птица – Последний богатырь. Сказочный сезон 04 выпуск от 2018.04.15 [2018, ТВ-шоу, HDTV 1080i]

Страницы:  1

Ответить
Автор
Сообщение

kuzmichm2196

RG Документалисты

Стаж: 8 лет 6 месяцев

Сообщений: 2130

kuzmichm2196 · 15-Апр-18 20:39 (4 месяца назад, ред. 15-Апр-18 20:48)

Синяя птица – Последний богатырь. Сказочный сезон 04 выпуск от 2018.04.15
Дата/Год выпуска: 2018
Страна: Россия
Жанр: ТВ-шоу
Продолжительность: 01:27:00
Перевод: Не требуется
Телеканал: Россия 1 HD
Описание: Юные музыканты, певцы, танцоры, гимнасты, акробаты в возрасте от 5 до 15 лет примут участие в новом всероссийском конкурсе "Синяя птица"!
Впервые детский творческий конкурс объединяет самые разнообразные номинации: оперный вокал и эстрадный, хореографию и цирковое искусство, классику и современность.
С "Синей птицей" сбываются мечты!
Ведущия: Дарья Златопольская
Жюри: народные артисты России скрипачка и дирижер Светлана Безродная; ректор хореографического училища им. Вагановой, премьер Большого Театра Николай Цискаридзе; исполнитель русских романсов, певец Олег Погудин.
Источник: Собственная запись
Качество: HDTV 1080i
Контейнер: TS
Видео кодек: H.264
Аудио кодек: MP2
Видео: H264; 1920x1080 (16:9); 25.000 fps; ~11.3 Mb/s
Аудио : MPEG Audio Version 1 Layer 2, 48000Hz, 2 channels stereo 192 Кбит/сек
MediaInfo
General
ID : 1 (0x1)
Complete name : L:\Temp\Синяя птица – Последний богатырь. Сказочный сезон 04 выпуск от 2018.04.15.ts
Format : MPEG-TS
File size : 7.37 GiB
Duration : 1 h 27 min
Overall bit rate mode : Variable
Overall bit rate : 12.1 Mb/s
Video
ID : 2292 (0x8F4)
Menu ID : 2291 (0x8F3)
Format : AVC
Format/Info : Advanced Video Codec
Format profile : High@L4
Format settings : CABAC / 4 Ref Frames
Format settings, CABAC : Yes
Format settings, RefFrames : 4 frames
Codec ID : 27
Duration : 1 h 27 min
Bit rate : 11.3 Mb/s
Width : 1 920 pixels
Height : 1 080 pixels
Display aspect ratio : 16:9
Frame rate : 25.000 FPS
Standard : Component
Color space : YUV
Chroma subsampling : 4:2:0
Bit depth : 8 bits
Scan type : Interlaced
Scan type, store method : Separated fields
Scan order : Top Field First
Bits/(Pixel*Frame) : 0.219
Stream size : 6.89 GiB (93%)
Color range : Limited
Color primaries : BT.709
Transfer characteristics : BT.709
Matrix coefficients : BT.709
Audio
ID : 2295 (0x8F7)
Menu ID : 2291 (0x8F3)
Format : MPEG Audio
Format version : Version 1
Format profile : Layer 2
Codec ID : 3
Duration : 1 h 27 min
Bit rate mode : Constant
Bit rate : 192 kb/s
Channel(s) : 2 channels
Sampling rate : 48.0 kHz
Compression mode : Lossy
Stream size : 120 MiB (2%)
Language : Russian
Скриншоты
Download
Для скачивания .torrent файлов необходима регистрация
Сайт не распространяет и не хранит электронные версии произведений, а лишь предоставляет доступ к создаваемому пользователями каталогу ссылок на торрент-файлы, которые содержат только списки хеш-сумм
[Профиль]  [ЛС] 
 
Ответить
Loading...
Error