Антон Мартынов - Основы съемки портретов. Научись работать с моделью. [2017, Фотосъемка. Мастер-класс., WEBRip, RUS] (Видеоурок)

Страницы:  1

Ответить
Автор
Сообщение

MeeGo-linux

Стаж: 9 месяцев

Сообщений: 10


MeeGo-linux · 04-Июн-17 00:17 (8 месяцев назад)

Антон Мартынов - Основы съемки портретов. Научись работать с моделью.
Страна: Россия
Автор: Антон Мартынов
Тематика: Фотосъемка. Мастер-класс.
Тип раздаваемого материала: Видеоурок
Продолжительность: 03:01:00
Год выпуска: 2017
Язык: Русский
Качество: WEBRip
Формат: MP4
Видео кодек: H.264
Аудио кодек: AAC
Видео: AVC MPEG4 (H264) 1920x1080 24 fps 1235 kbps
Аудио: AAC 44100Hz stereo 326kbps
Описание: Это практический жанровый мастер-класс для фотографов любого уровня, посвященный съемке портретов от А до Я в студии. Мужской портрет, женский и парный. С опытной моделью и с начинающей. Веселый и серьезный. Все аспекты — задумка, свет, позирование, отбор.
Чему Вы научитесь?
- Строить рабочий процесс при съемке портрета.
- Взаимодействовать с визажистом.
- Уверенно работать с новичками на площадке.
- Работать с моделью-профи.
- Работать с парой.
- Работать со светом быстро и просто.
- Контролировать съемочный процесс
Программа мастер-класса
СЪЁМКА ЖЕНСКОГО ПОРТРЕТА
Уточнение задачи, постановка № 1 — забавный портрет
-Работа с визажистом
-Выбор световой схемы, работа со светом
-Работа с моделью и съемка кадра, различные варианты
-Быстрый отбор отснятого материала
Уточнение задачи, постановка № 2 — серьезный портрет
-Работа с визажистом
-Выбор световой схемы, работа со светом
-Работа с моделью, съемка кадра, варианты
-Быстрый отбор отснятого материала
СЪЁМКА МУЖСКОГО ПОРТРЕТА
Уточнение задачи, постановка № 1 — деловой портрет
-Выбор световой схемы
-Работа с моделью, возможные варианты
-Быстрый просмотр и отбор отснятого материала
Уточнение задачи, постановка № 2 — свободный портрет
-Выбор световой схемы, работа со светом
-Работа с моделью, варианты
-Быстрый просмотр и отбор отснятого материала
СЪЁМКА ПАРНОГО ПОРТРЕТА
-Уточнение задачи
-Выбор световой схемы, установка света
-Съемка, работа с моделями
-Быстрый просмотр и отбор отснятого материала
MediaInfo
General
.\Основы съемки портретов - Мартынов Антон\Основы съемки портретов. Часть 1.mp4
Format : MPEG-4
Format profile : Base Media / Version 2
Codec ID : mp42
File size : 555 MiB
Duration : 49mn 29s
Overall bit rate mode : Variable
Overall bit rate : 1 568 Kbps
Encoded date : UTC 2017-02-14 22:26:49
Tagged date : UTC 2017-02-14 22:26:52
Video
ID : 1
Format : AVC
Format/Info : Advanced Video Codec
Format profile : High@L4
Format settings, CABAC : Yes
Format settings, ReFrames : 4 frames
Format settings, GOP : M=4, N=24
Codec ID : avc1
Codec ID/Info : Advanced Video Coding
Duration : 49mn 29s
Bit rate : 1 236 Kbps
Width : 1 920 pixels
Height : 1 080 pixels
Display aspect ratio : 16:9
Frame rate mode : Variable
Frame rate : 24.000 fps
Minimum frame rate : 23.810 fps
Maximum frame rate : 24.390 fps
Color space : YUV
Chroma subsampling : 4:2:0
Bit depth : 8 bits
Scan type : Progressive
Bits/(Pixel*Frame) : 0.025
Stream size : 437 MiB (79%)
Encoded date : UTC 2017-02-14 22:26:49
Tagged date : UTC 2017-02-14 22:26:52
Audio
ID : 2
Format : AAC
Format/Info : Advanced Audio Codec
Format profile : LC
Codec ID : 40
Duration : 49mn 29s
Bit rate mode : Variable
Bit rate : 326 Kbps
Channel(s) : 2 channels
Channel positions : Front: L R
Sampling rate : 44.1 KHz
Compression mode : Lossy
Stream size : 115 MiB (21%)
Title : Stereo
Encoded date : UTC 2017-02-14 22:26:49
Tagged date : UTC 2017-02-14 22:26:52
Скриншоты
Download
Для скачивания .torrent файлов необходима регистрация
Сайт не распространяет и не хранит электронные версии произведений, а лишь предоставляет доступ к создаваемому пользователями каталогу ссылок на торрент-файлы, которые содержат только списки хеш-сумм
[Профиль]  [ЛС] 
 
Ответить
Loading...
Error