(EBM, Dark-Electro, Industrial) PreEmptive Strike 0.1 – The Kosmokrator (US Version) - 2010, FLAC (image+.cue), lossless

Страницы:  1

Ответить
Автор
Сообщение

SONN1980

Стаж: 9 лет 9 месяцев

Сообщений: 110

SONN1980 · 21-Фев-12 08:24 (6 лет 5 месяцев назад, ред. 21-Фев-12 08:44)

PreEmptive Strike 0.1 – The Kosmokrator (US Version)
Жанр: EBM, Dark-Electro, Industrial
Страна-производитель диска: US
Год издания диска: 2010
Издатель (лейбл): Metropolis
Номер по каталогу: MET 669
Аудиокодек: FLAC (*.flac)
Тип рипа: image+.cue
Битрейт аудио: lossless
Продолжительность: 74:02
Источник (релизер): Физический носитель
Наличие сканов в содержимом раздачи: да
Треклист:
1. Astral God Race
2. Robotic Disintegrator (Feat. Ex.Es)
3. Kriegserklärung 1955
4. The Kosmokrator
5. Interstellar Threat (Feat. V:28)
6. Al Azif
7. Proteus Prayers
8. Syndrome:Mutation
9. Plan X From Outer Space
10. Codename Stormfury (Feat. FGFC820)
11. Island Of The Undead (Feat. Lamia)
12. Astral God Race (C-Drone Defect Remix)
13. The Kosmokreator (C-Lekktor Remix)
14. Astral God Race (DYM Remix)
15. Syndrome:Mutation (Bak XIII Remix)
Лог создания рипа
Exact Audio Copy V1.0 beta 2 from 29. April 2011
Отчёт EAC об извлечении, выполненном 21. февраля 2012, 9:08
Preemptive Strike 0.1 / Kosmokrator
Дисковод: Optiarc DVD RW AD-7240S Adapter: 1 ID: 0
Режим чтения : Достоверность
Использование точного потока : Да
Отключение кэша аудио : Да
Использование указателей C2 : Нет
Коррекция смещения при чтении : 48
Способность читать области Lead-in и Lead-out : Нет
Заполнение пропущенных сэмплов тишиной : Да
Удаление блоков с тишиной в начале и конце : Нет
При вычислениях CRC использовались нулевые сэмплы : Да
Интерфейс : Встроенный Win32-интерфейс для Win NT/2000
Выходной формат : Внутренние WAV-операции
Формат сэмплов : 44.100 Гц; 16 бит; стерео
TOC извлечённого CD
Трек | Старт | Длительность | Начальный сектор | Конечный сектор
---------------------------------------------------------------------
1 | 0:00.00 | 5:26.21 | 0 | 24470
2 | 5:26.21 | 5:10.54 | 24471 | 47774
3 | 10:37.00 | 5:40.00 | 47775 | 73274
4 | 16:17.00 | 5:15.24 | 73275 | 96923
5 | 21:32.24 | 5:03.10 | 96924 | 119658
6 | 26:35.34 | 1:09.30 | 119659 | 124863
7 | 27:44.64 | 5:00.43 | 124864 | 147406
8 | 32:45.32 | 5:08.64 | 147407 | 170570
9 | 37:54.21 | 3:46.54 | 170571 | 187574
10 | 41:41.00 | 5:16.22 | 187575 | 211296
11 | 46:57.22 | 5:29.52 | 211297 | 236023
12 | 52:26.74 | 5:34.31 | 236024 | 261104
13 | 58:01.30 | 5:16.41 | 261105 | 284845
14 | 63:17.71 | 5:19.29 | 284846 | 308799
15 | 68:37.25 | 5:23.68 | 308800 | 333092
Характеристики диапазона извлечения и сообщения об ошибках
Выбранный диапазон
Имя файла X:\Preemptive Strike 0.1\Preemptive Strike 0.1 - Kosmokrator.wav
Пиковый уровень 99.1 %
Скорость извлечения 4.5 X
Качество диапазона 100.0 %
CRC теста A03D0E72
CRC копии A03D0E72
Копирование... OK
Ошибок не произошло
AccurateRip: сводка
Трек 1 : извлечено точно (доверие 1) [458B9DDD] (AR v2)
Трек 2 : извлечено точно (доверие 1) [581BE7C3] (AR v2)
Трек 3 : извлечено точно (доверие 1) [AB706424] (AR v2)
Трек 4 : извлечено точно (доверие 1) [08768D4F] (AR v2)
Трек 5 : извлечено точно (доверие 1) [AC990B9E] (AR v2)
Трек 6 : извлечено точно (доверие 1) [2DD3D29E] (AR v2)
Трек 7 : извлечено точно (доверие 1) [76A426CE] (AR v2)
Трек 8 : извлечено точно (доверие 1) [826F30C4] (AR v2)
Трек 9 : извлечено точно (доверие 1) [5D1A2BB4] (AR v2)
Трек 10 : извлечено точно (доверие 1) [0F736770] (AR v2)
Трек 11 : извлечено точно (доверие 1) [942D33BC] (AR v2)
Трек 12 : извлечено точно (доверие 1) [E95AB522] (AR v2)
Трек 13 : извлечено точно (доверие 1) [173310CB] (AR v2)
Трек 14 : извлечено точно (доверие 1) [FFEA335C] (AR v2)
Трек 15 : извлечено точно (доверие 1) [5138C67C] (AR v2)
Все треки извлечены точно
Конец отчёта
==== Контрольная сумма отчёта CC6A64474C4232C73B5B7D95E1D65BB765585C46A1A1771D7101478DEC0D4D9A ====
Содержание индексной карты (.CUE)
REM GENRE Electronic
REM DATE 2010
REM DISCID 0711590F
REM COMMENT "ExactAudioCopy v1.0b2"
PERFORMER "Preemptive Strike 0.1"
TITLE "Kosmokrator"
FILE "Preemptive Strike 0.1 - Kosmokrator.wav" WAVE
TRACK 01 AUDIO
TITLE "Astral God Race"
PERFORMER "Preemptive Strike 0.1"
INDEX 01 00:00:00
TRACK 02 AUDIO
TITLE "Robotic Disintegrator (Feat. Ex.Es.)"
PERFORMER "Preemptive Strike 0.1"
INDEX 00 05:26:12
INDEX 01 05:26:21
TRACK 03 AUDIO
TITLE "Kriegserklarung 1955"
PERFORMER "Preemptive Strike 0.1"
INDEX 00 10:36:65
INDEX 01 10:37:00
TRACK 04 AUDIO
TITLE "The Kosmokrator"
PERFORMER "Preemptive Strike 0.1"
INDEX 00 16:16:65
INDEX 01 16:17:00
TRACK 05 AUDIO
TITLE "Interstellar Threat (Feat. V:28)"
PERFORMER "Preemptive Strike 0.1"
INDEX 00 21:32:15
INDEX 01 21:32:24
TRACK 06 AUDIO
TITLE "Al Azif"
PERFORMER "Preemptive Strike 0.1"
INDEX 00 26:35:24
INDEX 01 26:35:34
TRACK 07 AUDIO
TITLE "Proteus Prayers"
PERFORMER "Preemptive Strike 0.1"
INDEX 00 27:44:17
INDEX 01 27:44:64
TRACK 08 AUDIO
TITLE "Syndrome:Mutation"
PERFORMER "Preemptive Strike 0.1"
INDEX 01 32:45:32
TRACK 09 AUDIO
TITLE "Plan X From Outer Space"
PERFORMER "Preemptive Strike 0.1"
INDEX 00 37:54:12
INDEX 01 37:54:21
TRACK 10 AUDIO
TITLE "Codename Stormfury (Feat. FGFC820)"
PERFORMER "Preemptive Strike 0.1"
INDEX 00 41:40:65
INDEX 01 41:41:00
TRACK 11 AUDIO
TITLE "Island Of The Undead (Feat. Lamia)"
PERFORMER "Preemptive Strike 0.1"
INDEX 00 46:57:13
INDEX 01 46:57:22
TRACK 12 AUDIO
TITLE "Astral God Race (C-Drone Defect Remix)"
PERFORMER "Preemptive Strike 0.1"
INDEX 00 52:26:02
INDEX 01 52:26:74
TRACK 13 AUDIO
TITLE "The Kosmokrator (C-Lekktor Remix)"
PERFORMER "Preemptive Strike 0.1"
INDEX 00 58:01:20
INDEX 01 58:01:30
TRACK 14 AUDIO
TITLE "Astral God Race (DYM Remix)"
PERFORMER "Preemptive Strike 0.1"
INDEX 00 63:16:45
INDEX 01 63:17:71
TRACK 15 AUDIO
TITLE "Syndrome Mutation (Bak XIII Remix)"
PERFORMER "Preemptive Strike 0.1"
INDEX 00 68:37:15
INDEX 01 68:37:25
Download
Для скачивания .torrent файлов необходима регистрация
Сайт не распространяет и не хранит электронные версии произведений, а лишь предоставляет доступ к создаваемому пользователями каталогу ссылок на торрент-файлы, которые содержат только списки хеш-сумм
[Профиль]  [ЛС] 

Hellner

Top Seed 02* 80r

Стаж: 9 лет 5 месяцев

Сообщений: 879

Hellner · 21-Фев-12 17:46 (спустя 9 часов)

[Цитировать] 

SONN1980
Спасибо! Забрал из-за миксов (у самого другое издание альбома).
Новый альбом команды, "T.A.L.O.S.", обещает сочетать dark electro с традиционными греческими инструментами типа бузуки и лиры. Так-то.
[Профиль]  [ЛС] 

Ahmed666

Стаж: 8 лет 3 месяца

Сообщений: 12

Ahmed666 · 18-Авг-15 23:50 (спустя 3 года 5 месяцев, ред. 19-Авг-15 09:31)

[Цитировать] 

247 раз скачан альбом и никто не отписывается. а тем не менее куй кривой, разрезает с ошибками, а при воспроизведении целиком скачет на тех же треках. как то так )
вот старый дурак, попался в ловушку, не докачал и начал резать, прошу прощения камрады а так всё играет и альбом чоткий
[Профиль]  [ЛС] 

mell-x60

Стаж: 9 лет 8 месяцев

Сообщений: 8


mell-x60 · 22-Янв-18 18:25 (спустя 2 года 5 месяцев)

[Цитировать] 

Спасибо! Этот альбом у них больше всего нравится
[Профиль]  [ЛС] 
 
Ответить
Loading...
Error