Как снять точный потрековый рип аудио CD (обсуждение)

Страницы :  1, 2, 3 ... 38, 39, 40  След.

Ответить
Автор
Сообщение

Willy

VIP (Заслуженный)

Стаж: 10 лет 9 месяцев

Сообщений: 6109

Willy · 28-Июл-09 23:43 (8 лет 10 месяцев назад, ред. 24-Май-10 19:06)

[Цитировать] 

Как снять точный потрековый рип аудио CD (инструкция)

Хорошая инструкция, пять балов!
Цитата:
F9 (меню EAC -> EAC Options), закладка Tools, снимаем галочку с пункта Automatically write status report after extraction.
По моему, можно сделать проще - указать, что прегэп необходимо снимать в другую директорию, чтобы лог-файл не переписался. А то ведь, снять то галочку можно, а потом можно и забыть её поставить обратно
Хотя, как было отмечено в конце, такие диски попадаются не часто и дело имеют с ними, в основном, коллекционеры, которые знают, что и для чего они делают.
[Профиль]  [ЛС] 

simple.i

Moderator

Стаж: 9 лет 6 месяцев

Сообщений: 8631

simple.i · 29-Июл-09 00:21 (спустя 37 мин., ред. 29-Июл-09 03:16)

[Цитировать] 

Willy
Cпасибо. Сменить рабочую директорию - тоже лезть в настройки. Плюс, удобнее, когда всё в один горшок делается, больше шансов, что ничего не потеряешь. К тому же, последним пунктом в инструкции указан пункт 10. Восстанавливаем изменённые настройки ЕАС. Это должно стать правилом, как руки мыть.
Willy писал(а):
Хотя, как было отмечено в конце, такие диски попадаются не часто и дело имеют с ними, в основном, коллекционеры, которые знают, что и для чего они делают.
Не согласен. По большому счёту это должен делать (в смысле проверять, и, в случае обнаружения правильно снимать) каждый рипер, который делает потрековый рип. А то нестыковочка получается. С одной стороны, мы пропагандируем запись исключительно ЕАС, которая позволяет писать с учётом офсета, хотя невыставленный офсет - это всего-лишь несколько десятков сэмплов в сторону без изменения информативной части. Говорим о том, что для большей подлинности желательно использовать приводы с возможно меньшим смещением чтения. И в это же время пренебрежительно относимся к обнулению 588Х32=18816 сэмплов, как, например, в приведенном примере, а ведь это далеко не самый длинный прегэп. Моё мнение - нужно либо соблюдать задекларированную максимальную точность во всём, либо перестать заниматься демагогией, муссируя это понятие. Среднего не дано.
[Профиль]  [ЛС] 

Willy

VIP (Заслуженный)

Стаж: 10 лет 9 месяцев

Сообщений: 6109

Willy · 29-Июл-09 00:26 (спустя 5 мин.)

[Цитировать] 

simple.i писал(а):
Сменить рабочую директорию - тоже лезть в настройки.
Это если в настройках указана директория дли копирования по умолчанию.
simple.i писал(а):
Моё мнение - нужно либо соблюдать задекларированную максимальную точность во всём, либо перестать заниматься демагогией, муссируя это понятие. Среднего не дано.
Конечно же, первый вариант
[Профиль]  [ЛС] 

simple.i

Moderator

Стаж: 9 лет 6 месяцев

Сообщений: 8631

simple.i · 29-Июл-09 00:37 (спустя 10 мин.)

[Цитировать] 

Willy писал(а):
Это если в настройках указана директория дли копирования по умолчанию.
Само-собой. Лично у меня всегда и везде указано. Не люблю, знаете, отвечать на тупые вопросы умных программ.
[Профиль]  [ЛС] 

Willy

VIP (Заслуженный)

Стаж: 10 лет 9 месяцев

Сообщений: 6109

Willy · 29-Июл-09 00:39 (спустя 2 мин.)

[Цитировать] 

Дело вкуса
[Профиль]  [ЛС] 

simple.i

Moderator

Стаж: 9 лет 6 месяцев

Сообщений: 8631

simple.i · 29-Июл-09 01:37 (спустя 58 мин.)

[Цитировать] 

Willy
И это тоже. Но больше из-за удобства. Никогда ничего не забудешь, всё всегда систематизировано, всё стандартно, да и время экономится. Хоть это и не основная работа, а хобби, так сказать, но всё же...
[Профиль]  [ЛС] 

k1rza

RG Soundtracks

Стаж: 10 лет 11 месяцев

Сообщений: 3547

k1rza · 30-Июл-09 13:37 (спустя 1 день 11 часов, ред. 30-Июл-09 13:54)

[Цитировать] 

simple.i
Прочитал статью, появились новые вопросы.
А вот такой куй правильный? Не увидел у себя в куе строчку с PREGAP, это нормально? Снимал потреково+Noncompilant CUE.
скрытый текст
REM GENRE Eurobeat
REM DATE 2007
REM DISCID A90F240C
REM COMMENT "ExactAudioCopy v0.99pb5"
PERFORMER "Various"
TITLE "Inital D Battle Stage 2 (Disc 1)"
FILE "01. Symbol - Forever Love Me.wav" WAVE
TRACK 01 AUDIO
TITLE "Forever Love Me"
PERFORMER "Symbol"
INDEX 01 00:00:00
TRACK 02 AUDIO
TITLE "Power"
PERFORMER "Go 2"
INDEX 00 05:31:57
FILE "02. Go 2 - Power.wav" WAVE
INDEX 01 00:00:00
TRACK 03 AUDIO
TITLE "Take Me Forever"
PERFORMER "Digital Planet"
INDEX 00 05:37:09
FILE "03. Digital Planet - Take Me Forever.wav" WAVE
INDEX 01 00:00:00
TRACK 04 AUDIO
TITLE "Shock Out"
PERFORMER "Fastway"
INDEX 00 05:35:50
FILE "04. Fastway - Shock Out.wav" WAVE
INDEX 01 00:00:00
TRACK 05 AUDIO
TITLE "Welcome People"
PERFORMER "Mr. M"
INDEX 00 05:31:16
FILE "05. Mr. M - Welcome People.wav" WAVE
INDEX 01 00:00:00
TRACK 06 AUDIO
TITLE "Don't Stop The Music 2006"
PERFORMER "Lou Grant"
INDEX 00 05:32:41
FILE "06. Lou Grant - Don't Stop The Music 2006.wav" WAVE
INDEX 01 00:00:00
TRACK 07 AUDIO
TITLE "Switch!"
PERFORMER "Melissa White & Ace"
INDEX 00 05:12:61
FILE "07. Melissa White & Ace - Switch!.wav" WAVE
INDEX 01 00:00:00
TRACK 08 AUDIO
TITLE "Let It Burn"
PERFORMER "Go 2"
INDEX 00 05:02:13
FILE "08. Go 2 - Let It Burn.wav" WAVE
INDEX 01 00:00:00
TRACK 09 AUDIO
TITLE "Disco Fire"
PERFORMER "Dave Rodgers"
INDEX 00 04:40:41
FILE "09. Dave Rodgers - Disco Fire.wav" WAVE
INDEX 01 00:00:00
TRACK 10 AUDIO
TITLE "Crazy & Ready"
PERFORMER "Phil"
INDEX 00 04:44:15
FILE "10. Phil - Crazy & Ready.wav" WAVE
INDEX 01 00:00:00
TRACK 11 AUDIO
TITLE "Idol"
PERFORMER "Idol"
INDEX 00 05:35:18
FILE "11. Idol - Idol.wav" WAVE
INDEX 01 00:00:00
TRACK 12 AUDIO
TITLE "Love Shining"
PERFORMER "Kasanova"
INDEX 00 05:44:42
FILE "12. Kasanova - Love Shining.wav" WAVE
INDEX 01 00:00:00

log
Exact Audio Copy V0.99 prebeta 5 from 4. May 2009
EAC extraction logfile from 21. May 2009, 22:50
Various / Inital D Battle Stage 2 (Disc 1)
Used drive : ASUS DRW-1814BLT Adapter: 1 ID: 2
Read mode : Secure
Utilize accurate stream : Yes
Defeat audio cache : Yes
Make use of C2 pointers : No
Read offset correction : 6
Overread into Lead-In and Lead-Out : No
Fill up missing offset samples with silence : Yes
Delete leading and trailing silent blocks : No
Null samples used in CRC calculations : Yes
Used interface : Installed external ASPI interface
Gap handling : Appended to previous track
Used output format : User Defined Encoder
Selected bitrate : 128 kBit/s
Quality : High
Add ID3 tag : No
Command line compressor : C:\Program Files\FLAC\flac.exe
Additional command line options : -8 -V -T "ARTIST=%a" -T "TITLE=%t" -T "ALBUM=%g" -T "DATE=%y" -T "TRACKNUMBER=%n" -T "GENRE=%m" -T "COMMENT=ripper by K1RZA" %s
TOC of the extracted CD
Track | Start | Length | Start sector | End sector
---------------------------------------------------------
1 | 0:00.00 | 5:34.28 | 0 | 25077
2 | 5:34.28 | 5:39.54 | 25078 | 50556
3 | 11:14.07 | 5:38.21 | 50557 | 75927
4 | 16:52.28 | 5:32.60 | 75928 | 100887
5 | 22:25.13 | 5:35.10 | 100888 | 126022
6 | 28:00.23 | 5:15.30 | 126023 | 149677
7 | 33:15.53 | 5:04.57 | 149678 | 172534
8 | 38:20.35 | 4:43.10 | 172535 | 193769
9 | 43:03.45 | 4:46.60 | 193770 | 215279
10 | 47:50.30 | 5:37.62 | 215280 | 240616
11 | 53:28.17 | 5:47.11 | 240617 | 266652
12 | 59:15.28 | 5:20.70 | 266653 | 290722
Track 1
Filename C:\EACrips\01. Symbol - Forever Love Me.wav
Pre-gap length 0:00:02.00
Peak level 100.0 %
Track quality 99.9 %
Test CRC B6B3BD29
Copy CRC B6B3BD29
Accurately ripped (confidence 1) [2AB0EBFD]
Copy OK
Track 2
Filename C:\EACrips\02. Go 2 - Power.wav
Pre-gap length 0:00:02.61
Peak level 100.0 %
Track quality 99.9 %
Test CRC 860916F3
Copy CRC 860916F3
Accurately ripped (confidence 1) [FD7820A2]
Copy OK
Track 3
Filename C:\EACrips\03. Digital Planet - Take Me Forever.wav
Pre-gap length 0:00:02.60
Peak level 100.0 %
Track quality 100.0 %
Test CRC EC73EF28
Copy CRC EC73EF28
Accurately ripped (confidence 1) [61E1AABA]
Copy OK
Track 4
Filename C:\EACrips\04. Fastway - Shock Out.wav
Pre-gap length 0:00:02.61
Peak level 100.0 %
Track quality 100.0 %
Test CRC F00201A6
Copy CRC F00201A6
Accurately ripped (confidence 1) [9115ADEC]
Copy OK
Track 5
Filename C:\EACrips\05. Mr. M - Welcome People.wav
Pre-gap length 0:00:01.58
Peak level 100.0 %
Track quality 100.0 %
Test CRC 5B0DA45A
Copy CRC 5B0DA45A
Accurately ripped (confidence 1) [E4B57769]
Copy OK
Track 6
Filename C:\EACrips\06. Lou Grant - Don't Stop The Music 2006.wav
Pre-gap length 0:00:02.58
Peak level 100.0 %
Track quality 100.0 %
Test CRC 9B75761D
Copy CRC 9B75761D
Accurately ripped (confidence 1) [A1822E02]
Copy OK
Track 7
Filename C:\EACrips\07. Melissa White & Ace - Switch!.wav
Pre-gap length 0:00:02.58
Peak level 100.0 %
Track quality 100.0 %
Test CRC D5723424
Copy CRC D5723424
Accurately ripped (confidence 1) [6C2E84C9]
Copy OK
Track 8
Filename C:\EACrips\08. Go 2 - Let It Burn.wav
Pre-gap length 0:00:02.58
Peak level 100.0 %
Track quality 100.0 %
Test CRC 1EC88B97
Copy CRC 1EC88B97
Accurately ripped (confidence 1) [7846D669]
Copy OK
Track 9
Filename C:\EACrips\09. Dave Rodgers - Disco Fire.wav
Pre-gap length 0:00:02.58
Peak level 100.0 %
Track quality 100.0 %
Test CRC FADA9F99
Copy CRC FADA9F99
Accurately ripped (confidence 1) [D1E02C01]
Copy OK
Track 10
Filename C:\EACrips\10. Phil - Crazy & Ready.wav
Pre-gap length 0:00:02.60
Peak level 100.0 %
Track quality 100.0 %
Test CRC 478D1C3A
Copy CRC 478D1C3A
Accurately ripped (confidence 1) [EDDE174A]
Copy OK
Track 11
Filename C:\EACrips\11. Idol - Idol.wav
Pre-gap length 0:00:02.58
Peak level 100.0 %
Track quality 100.0 %
Test CRC CEBD7E26
Copy CRC CEBD7E26
Accurately ripped (confidence 1) [16A03EA0]
Copy OK
Track 12
Filename C:\EACrips\12. Kasanova - Love Shining.wav
Pre-gap length 0:00:02.58
Peak level 100.0 %
Track quality 100.0 %
Test CRC E4905689
Copy CRC E4905689
Accurately ripped (confidence 1) [F7C18507]
Copy OK
All tracks accurately ripped
No errors occurred
End of status report
P.S.
Прилажил на всякий случай лог файл.
[Профиль]  [ЛС] 

simple.i

Moderator

Стаж: 9 лет 6 месяцев

Сообщений: 8631

simple.i · 30-Июл-09 13:48 (спустя 10 мин.)

[Цитировать] 

k1rza
Вполне. Если у Вас зазор на первом треке = 2 с ровно,
например, как здесь,
Вы и не должны увидеть эту строчку. Тэг PREGAP появляется только тогда, когда зазор более 2 с, и значение его равно величине зазора первого трека минус 2 с. Об этом было в статье и скрин взят оттуда.
[Профиль]  [ЛС] 

laburj

Стаж: 10 лет 6 месяцев

Сообщений: 42


laburj · 23-Окт-09 17:38 (спустя 2 месяца 24 дня)

[Цитировать] 

а что нужно сделать, чтобы в интерфейсе программы появилась колонка gap?
а то у меня только Title, track, start, length, size и read crc
[Профиль]  [ЛС] 

simple.i

Moderator

Стаж: 9 лет 6 месяцев

Сообщений: 8631

simple.i · 23-Окт-09 19:42 (спустя 2 часа 3 мин.)

[Цитировать] 

laburj
Странно. А какая версия программы?
[Профиль]  [ЛС] 

laburj

Стаж: 10 лет 6 месяцев

Сообщений: 42


laburj · 23-Окт-09 21:48 (спустя 2 часа 6 мин.)

[Цитировать] 

0.99 prebeta 5 от мая 2009
[Профиль]  [ЛС] 

simple.i

Moderator

Стаж: 9 лет 6 месяцев

Сообщений: 8631

simple.i · 23-Окт-09 23:18 (спустя 1 час 29 мин.)

[Цитировать] 

laburj
Тем более странно. У меня такая же версия, но есть всё.
Зацепите мышем вертикальный разделитель между length и size, и не отпуская левую кнопку мыши потяните вправо - должен gap появиться.
[Профиль]  [ЛС] 

laburj

Стаж: 10 лет 6 месяцев

Сообщений: 42


laburj · 23-Окт-09 23:32 (спустя 14 мин.)

[Цитировать] 

тяни не тяни, gap не появился.. я думал, что просто колонки можно выборочно отключать, как например в utorrent, оказывается это у меня косяк какой-то
скрин решил сделать

завтра попробую на другой машинке, видимо в ОСи баги
[Профиль]  [ЛС] 

Willy

VIP (Заслуженный)

Стаж: 10 лет 9 месяцев

Сообщений: 6109

Willy · 23-Окт-09 23:36 (спустя 3 мин.)

[Цитировать] 

laburj
Переустановлять программу пробовали?
[Профиль]  [ЛС] 

simple.i

Moderator

Стаж: 9 лет 6 месяцев

Сообщений: 8631

simple.i · 23-Окт-09 23:57 (спустя 21 мин.)

[Цитировать] 

laburj писал(а):
я думал, что просто колонки можно выборочно отключать
Такой настройки нет. Только мышем. Когда наводишь на разделитель между полями в строке заголовков и нажимаешь левую кнопку мыши, курсор сменяется на вертикальную линию с двумя стрелками влево-вправо. Если эта вертикальная линия двойная - есть скрытый столбец, и, если потянуть вправо, он появляется. Только так, другого пути (кроме переустановки) нет.
[Профиль]  [ЛС] 

laburj

Стаж: 10 лет 6 месяцев

Сообщений: 42


laburj · 24-Окт-09 00:54 (спустя 57 мин., ред. 24-Окт-09 00:54)

[Цитировать] 

simple.i, Willy
спасибо за помощь! переустановка решила этот вопрос!
simple.i писал(а):
Только мышем. Когда наводишь на разделитель между полями в строке заголовков и нажимаешь левую кнопку мыши, курсор сменяется на вертикальную линию с двумя стрелками влево-вправо. Если эта вертикальная линия двойная - есть скрытый столбец, и, если потянуть вправо, он появляется. Только так, другого пути (кроме переустановки) нет.
после переустановки загрузил свой ранее сохранённый профиль и вернулся к своим баранам)
и правда, оказалось, что появилась двойная вертикальная линия, решил этот вопрос уже без переустановки!
спасибо!
[Профиль]  [ЛС] 

k1rza

RG Soundtracks

Стаж: 10 лет 11 месяцев

Сообщений: 3547

k1rza · 24-Окт-09 13:39 (спустя 12 часов)

[Цитировать] 

Сегодня стал снимать рип с диска и увидел вот такую вещь, это вообще нормально?
[Профиль]  [ЛС] 

simple.i

Moderator

Стаж: 9 лет 6 месяцев

Сообщений: 8631

simple.i · 24-Окт-09 13:58 (спустя 19 мин.)

[Цитировать] 

k1rza
Вообще-то не очень. Проиграйте это место непосредственно с диска. Хорошо было бы это сделать на "железяке" умеющей отрабатывать нулевые индексы. Такую паузу не заметить не возможно. Если её нет - подбирайте метод определения зазоров для этого диска. Только не забудьте потом к нормальным настройкам всё вернуть.
[Профиль]  [ЛС] 

k1rza

RG Soundtracks

Стаж: 10 лет 11 месяцев

Сообщений: 3547

k1rza · 24-Окт-09 14:32 (спустя 34 мин.)

[Цитировать] 

simple.i
Похоже это был глюк привода. Попробовал на другом, прегап уже нормальный - 01.20.
[Профиль]  [ЛС] 

Bookbookup

Top Seed 01* 40r

Стаж: 10 лет

Сообщений: 359

Bookbookup · 09-Дек-09 18:53 (спустя 1 месяц 16 дней, ред. 12-Дек-09 15:53)

[Цитировать] 

simple.i писал(а):
Некоторые приводы неуверенно читают данные на внутренних дорожках диска. Поскольку сама ЕАС никаких проверок во время данной процедуры не производит, мы эту проверку вынуждены взять на себя, моделируя режим Test & Copy, для полной уверенности, что данные сняты правильно.
На таких прводах можно хоть 100 раз снимать прегап, правильного результата всё равно не добиться. Прегап будет неправильно снят все 100 раз. Причём все 100 раз одинаково неправильно.
Логи снятия прегапа на приводе, который "неуверенно читает данные на внутренних дорожках диска"
Попытка №1
Exact Audio Copy V0.99 prebeta 5 from 4. May 2009
Отчёт EAC об извлечении, выполненном 12. декабря 2009, 15:03
AFI / December Underground
Дисковод: SONY DVD RW DRU-830A Adapter: 1 ID: 0
Режим чтения : Достоверность
Использование точного потока : Да
Отключение кэша аудио : Да
Использование указателей C2 : Нет
Коррекция смещения при чтении : 6
Способность читать области Lead-in и Lead-out : Нет
Заполнение пропущенных сэмплов тишиной : Да
Удаление блоков с тишиной в начале и конце : Нет
При вычислениях CRC использовались нулевые сэмплы : Да
Интерфейс : Встроенный Win32-интерфейс для Win NT/2000
Выходной формат : Внутренние WAV-операции
Формат сэмплов : 44.100 Гц; 16 бит; стерео
TOC извлечённого CD
Трек | Старт | Длительность | Начальный сектор | Конечный сектор
---------------------------------------------------------------------
1 | 0:19.25 | 1:34.35 | 1450 | 8534
2 | 1:53.60 | 2:39.46 | 8535 | 20505
3 | 4:33.31 | 3:26.44 | 20506 | 35999
4 | 8:00.00 | 3:06.73 | 36000 | 50022
5 | 11:06.73 | 4:16.60 | 50023 | 69282
6 | 15:23.58 | 2:45.49 | 69283 | 81706
7 | 18:09.32 | 5:28.51 | 81707 | 106357
8 | 23:38.08 | 4:40.23 | 106358 | 127380
9 | 28:18.31 | 4:18.40 | 127381 | 146770
10 | 32:36.71 | 4:04.57 | 146771 | 165127
11 | 36:41.53 | 3:55.18 | 165128 | 182770
12 | 40:36.71 | 4:28.17 | 182771 | 202887
13 | 45:05.13 | 3:48.34 | 202888 | 220021
Трек 1, Индекс 0
Подозрительная позиция 0:00:17
Пиковый уровень 19.8 %
Качество трека 96.2 %
Копирование завершено
Трек 1, Индекс 1
Пиковый уровень 96.6 %
Качество трека 100.0 %
Копирование... OK
AccurateRip: сводка
Трек 1 точность не определена (достоверность 14) [1E85E3D0], AccurateRip вернул [1C37473A]
Ни один трек не прошёл проверки на точность
Были ошибки
Конец отчёта
Попытка №2
Exact Audio Copy V0.99 prebeta 5 from 4. May 2009
Отчёт EAC об извлечении, выполненном 12. декабря 2009, 15:08
AFI / December Underground
Дисковод: SONY DVD RW DRU-830A Adapter: 1 ID: 0
Режим чтения : Достоверность
Использование точного потока : Да
Отключение кэша аудио : Да
Использование указателей C2 : Нет
Коррекция смещения при чтении : 6
Способность читать области Lead-in и Lead-out : Нет
Заполнение пропущенных сэмплов тишиной : Да
Удаление блоков с тишиной в начале и конце : Нет
При вычислениях CRC использовались нулевые сэмплы : Да
Интерфейс : Встроенный Win32-интерфейс для Win NT/2000
Выходной формат : Внутренние WAV-операции
Формат сэмплов : 44.100 Гц; 16 бит; стерео
TOC извлечённого CD
Трек | Старт | Длительность | Начальный сектор | Конечный сектор
---------------------------------------------------------------------
1 | 0:19.25 | 1:34.35 | 1450 | 8534
2 | 1:53.60 | 2:39.46 | 8535 | 20505
3 | 4:33.31 | 3:26.44 | 20506 | 35999
4 | 8:00.00 | 3:06.73 | 36000 | 50022
5 | 11:06.73 | 4:16.60 | 50023 | 69282
6 | 15:23.58 | 2:45.49 | 69283 | 81706
7 | 18:09.32 | 5:28.51 | 81707 | 106357
8 | 23:38.08 | 4:40.23 | 106358 | 127380
9 | 28:18.31 | 4:18.40 | 127381 | 146770
10 | 32:36.71 | 4:04.57 | 146771 | 165127
11 | 36:41.53 | 3:55.18 | 165128 | 182770
12 | 40:36.71 | 4:28.17 | 182771 | 202887
13 | 45:05.13 | 3:48.34 | 202888 | 220021
Трек 1, Индекс 0
Подозрительная позиция 0:00:17
Пиковый уровень 19.8 %
Качество трека 96.2 %
Копирование завершено
Трек 1, Индекс 1
Пиковый уровень 96.6 %
Качество трека 100.0 %
Копирование... OK
AccurateRip: сводка
Трек 1 точность не определена (достоверность 14) [1E85E3D0], AccurateRip вернул [1C37473A]
Ни один трек не прошёл проверки на точность
Были ошибки
Конец отчёта
Попытка №3
Exact Audio Copy V0.99 prebeta 5 from 4. May 2009
Отчёт EAC об извлечении, выполненном 12. декабря 2009, 15:12
AFI / December Underground
Дисковод: SONY DVD RW DRU-830A Adapter: 1 ID: 0
Режим чтения : Достоверность
Использование точного потока : Да
Отключение кэша аудио : Да
Использование указателей C2 : Нет
Коррекция смещения при чтении : 6
Способность читать области Lead-in и Lead-out : Нет
Заполнение пропущенных сэмплов тишиной : Да
Удаление блоков с тишиной в начале и конце : Нет
При вычислениях CRC использовались нулевые сэмплы : Да
Интерфейс : Встроенный Win32-интерфейс для Win NT/2000
Выходной формат : Внутренние WAV-операции
Формат сэмплов : 44.100 Гц; 16 бит; стерео
TOC извлечённого CD
Трек | Старт | Длительность | Начальный сектор | Конечный сектор
---------------------------------------------------------------------
1 | 0:19.25 | 1:34.35 | 1450 | 8534
2 | 1:53.60 | 2:39.46 | 8535 | 20505
3 | 4:33.31 | 3:26.44 | 20506 | 35999
4 | 8:00.00 | 3:06.73 | 36000 | 50022
5 | 11:06.73 | 4:16.60 | 50023 | 69282
6 | 15:23.58 | 2:45.49 | 69283 | 81706
7 | 18:09.32 | 5:28.51 | 81707 | 106357
8 | 23:38.08 | 4:40.23 | 106358 | 127380
9 | 28:18.31 | 4:18.40 | 127381 | 146770
10 | 32:36.71 | 4:04.57 | 146771 | 165127
11 | 36:41.53 | 3:55.18 | 165128 | 182770
12 | 40:36.71 | 4:28.17 | 182771 | 202887
13 | 45:05.13 | 3:48.34 | 202888 | 220021
Трек 1, Индекс 0
Подозрительная позиция 0:00:17
Пиковый уровень 19.8 %
Качество трека 96.2 %
Копирование завершено
Трек 1, Индекс 1
Пиковый уровень 96.6 %
Качество трека 100.0 %
Копирование... OK
AccurateRip: сводка
Трек 1 точность не определена (достоверность 14) [1E85E3D0], AccurateRip вернул [1C37473A]
Ни один трек не прошёл проверки на точность
Были ошибки
Конец отчёта
---------------------------------------------------------------------------
Лог снятия прегапа на приводе, который нормально читает прегап
Exact Audio Copy V0.99 prebeta 5 from 4. May 2009
Отчёт EAC об извлечении, выполненном 12. декабря 2009, 15:17
AFI / December Underground
Дисковод: PIONEER DVD-RW DVR-110D Adapter: 1 ID: 1
Режим чтения : Достоверность
Использование точного потока : Да
Отключение кэша аудио : Да
Использование указателей C2 : Нет
Коррекция смещения при чтении : 48
Способность читать области Lead-in и Lead-out : Нет
Заполнение пропущенных сэмплов тишиной : Да
Удаление блоков с тишиной в начале и конце : Нет
При вычислениях CRC использовались нулевые сэмплы : Да
Интерфейс : Встроенный Win32-интерфейс для Win NT/2000
Выходной формат : Внутренние WAV-операции
Формат сэмплов : 44.100 Гц; 16 бит; стерео
TOC извлечённого CD
Трек | Старт | Длительность | Начальный сектор | Конечный сектор
---------------------------------------------------------------------
1 | 0:19.25 | 1:34.35 | 1450 | 8534
2 | 1:53.60 | 2:39.46 | 8535 | 20505
3 | 4:33.31 | 3:26.44 | 20506 | 35999
4 | 8:00.00 | 3:06.73 | 36000 | 50022
5 | 11:06.73 | 4:16.60 | 50023 | 69282
6 | 15:23.58 | 2:45.49 | 69283 | 81706
7 | 18:09.32 | 5:28.51 | 81707 | 106357
8 | 23:38.08 | 4:40.23 | 106358 | 127380
9 | 28:18.31 | 4:18.40 | 127381 | 146770
10 | 32:36.71 | 4:04.57 | 146771 | 165127
11 | 36:41.53 | 3:55.18 | 165128 | 182770
12 | 40:36.71 | 4:28.17 | 182771 | 202887
13 | 45:05.13 | 3:48.34 | 202888 | 220021
Трек 1, Индекс 0
Пиковый уровень 53.6 %
Качество трека 100.0 %
Копирование... OK
Трек 1, Индекс 1
Пиковый уровень 96.6 %
Качество трека 100.0 %
Копирование... OK
AccurateRip: сводка
Трек 1 точность не определена (достоверность 14) [1E85E3D0], AccurateRip вернул [1C37473A]
Ни один трек не прошёл проверки на точность
В вашей базе может быть иной вариант штамповки диска
Ошибок не произошло
Конец отчёта
Все три файла прегапа, снятые с ошибками идентичны между собой.
Сравнение файла прегапа, снятого с ошибками, с файлом прегапа, снятого без ошибок
А по поводу того, чтобы не лезть в настройки: просто сначала снять прегап, удалить лишние файлы, а потом уже делать "основной" рип.
[Профиль]  [ЛС] 

Paralaksator

Стаж: 8 лет 5 месяцев

Сообщений: 375

Paralaksator · 25-Янв-10 01:40 (спустя 1 месяц 15 дней, ред. 25-Янв-10 13:07)

[Цитировать] 

simple.i
Подскажи пожалуйста, вот CUE... Потреково ...
По схеме:
4. Создаём CUE-файл: меню Action -> Сreate CUE Sheet -> Multiple WAV Files With Gaps (Noncompliant).
5. Снимаем рип: Нажмаем F6 (меню Action -> Test & Copy Selected Tracks -> Uncompressed) - для получения несжатых файлов, или Shift+F6 (меню Action -> Test & Copy Selected Tracks -> Сompressed) - для получения сжатых файлов.
6. Жмём OK. Основная процедура снятия рипа окончена.
скрытый текст
REM GENRE "Death Metal"
REM DATE 1996
REM DISCID 5805A106
REM COMMENT "ExactAudioCopy v0.99pb5"
PERFORMER "Dissection"
TITLE "Where Dead Angels Lie"
FILE "Dissection - 1996 - Where Dead Angels Lie\01. Dissection - Where Dead Angels Lie (Demo Version).wav" WAVE
TRACK 01 AUDIO
TITLE "Where Dead Angels Lie (Demo Version)"
PERFORMER "Dissection"
INDEX 01 00:00:00
FILE "Dissection - 1996 - Where Dead Angels Lie\02. Dissection - Elisabeth Bathori.wav" WAVE
TRACK 02 AUDIO
TITLE "Elisabeth Bathori"
PERFORMER "Dissection"
INDEX 01 00:00:00
FILE "Dissection - 1996 - Where Dead Angels Lie\03. Dissection - Antichrist.wav" WAVE
TRACK 03 AUDIO
TITLE "Antichrist"
PERFORMER "Dissection"
INDEX 01 00:00:00
FILE "Dissection - 1996 - Where Dead Angels Lie\04. Dissection - Feathers Fell.wav" WAVE
TRACK 04 AUDIO
TITLE "Feathers Fell"
PERFORMER "Dissection"
INDEX 01 00:00:00
FILE "Dissection - 1996 - Where Dead Angels Lie\05. Dissection - Son Of The Mourning.wav" WAVE
TRACK 05 AUDIO
TITLE "Son Of The Mourning"
PERFORMER "Dissection"
INDEX 01 00:00:00
FILE "Dissection - 1996 - Where Dead Angels Lie\06. Dissection - Where Dead Angels Lie (Album Version).wav" WAVE
TRACK 06 AUDIO
TITLE "Where Dead Angels Lie (Album Version)"
PERFORMER "Dissection"
INDEX 01 00:00:00
что не так? или всё норм, но при записи на CD шипение.
С паузами (F4) вот такая ситуация

При проверке зазоров на тишину (F3) везде - НЕТ зазоров...
EAC настроен вроде норм...
[Профиль]  [ЛС] 

simple.i

Moderator

Стаж: 9 лет 6 месяцев

Сообщений: 8631

simple.i · 25-Янв-10 14:45 (спустя 13 часов)

[Цитировать] 

Paralaksator
Ситуация с зазорами вполне нормальная. Они могут быть или их может не быть. Предзазор первого трека присутствует всегда и равен минимум 2-м секундам, которые при снятии рипа всегда отбрасываются.
По поводу шипения. Причины могут быть разными. Что именно Вы записывали (источник), как и в какой программе?
[Профиль]  [ЛС] 

Paralaksator

Стаж: 8 лет 5 месяцев

Сообщений: 375

Paralaksator · 25-Янв-10 23:01 (спустя 8 часов, ред. 25-Янв-10 23:01)

[Цитировать] 

simple.i
Нашёл CUE образ Алкоголем и записал...
вопросы:
1 трек INDEX 01 00:00:00
2 трек INDEX 01 00:00:00
3 трек INDEX 01 00:00:00 и т.д. - это нормально?
и ещё...
image + .cue, закидываем cue в тот же foobar 2000 (все треки видны, выбирай любой) и слушаем...
tracks + .cue, закидываем cue туда же и ничего...
т.е tracks + .cue - нужно закидывать сами треки?
[Профиль]  [ЛС] 

simple.i

Moderator

Стаж: 9 лет 6 месяцев

Сообщений: 8631

simple.i · 25-Янв-10 23:09 (спустя 7 мин.)

[Цитировать] 

Paralaksator писал(а):
вопросы:
1 трэк INDEX 01 00:00:00
2 трэк INDEX 01 00:00:00
3 трэк INDEX 01 00:00:00 и т.д. - это нормально?
Если рип потрековый, с зазорами присоединёнными к предыдущему треку или вообще без зазоров, то только так и должно быть.
Paralaksator писал(а):
iimage + .cue, закидываем cue в тот же foobar 2000 (все треки видны, выбирай любой) и слушаем...
tracks + .cue, закидываем cue туда же и ничего...
т.е tracks + .cue - нужно закидывать сами треки?
Да. Или плейлист .m3u, если он есть. А ещё лучше, установить плагин к фубару foo_cuefilter.dll и закидывать папку - фубар сам разберётся, что загружать.
Paralaksator писал(а):
Нашёл CUE образ Алкоголем и записал...
Алкоголь не все CUE правильно трактует, только от образов, да и те с поправками. Лучше пользоваться для записи другой программой - ImgBurn. Она понимает любые CUE.
[Профиль]  [ЛС] 

Paralaksator

Стаж: 8 лет 5 месяцев

Сообщений: 375

Paralaksator · 26-Янв-10 03:33 (спустя 4 часа, ред. 27-Янв-10 01:01)

[Цитировать] 

simple.i
Всё! Разобрался... Спасибо.
[Профиль]  [ЛС] 

WhiteOak

Стаж: 8 лет 6 месяцев

Сообщений: 24

WhiteOak · 24-Фев-10 20:35 (спустя 29 дней)

[Цитировать] 

У меня такая проблема. Когда с помощью EAC снимаю весь диск, то на копии ДЛИТЕЛЬНОСТЬ треков (на несколько секунд) отличается от оригинала. Как сделать, чтобы ДЛИТЕЛЬНОСТЬ треков совпадала с оригиналом 1 в 1?
[Профиль]  [ЛС] 

simple.i

Moderator

Стаж: 9 лет 6 месяцев

Сообщений: 8631

simple.i · 24-Фев-10 23:07 (спустя 2 часа 32 мин.)

[Цитировать] 

Bondar'
Поясните, на основании чего Вы пришли к такому выводу? Какими средствами меряете длительность в обоих случаях?
[Профиль]  [ЛС] 

WhiteOak

Стаж: 8 лет 6 месяцев

Сообщений: 24

WhiteOak · 26-Фев-10 02:27 (спустя 1 день 3 часа, ред. 26-Фев-10 02:27)

[Цитировать] 

После того как EAC сделал копию всего диска, я визуально вижу в EAC в столбце Length, что длительность каждого трека копии длиннее оригинала ровно на 2 секунды.
Сравнив ещё столбец Start, я вижу:
...........Оригинал.......Копия
Track01 0:00:00.00.....0:00:02.00
Track02 0:03:20.15.....0:03:24.15
[Профиль]  [ЛС] 

simple.i

Moderator

Стаж: 9 лет 6 месяцев

Сообщений: 8631

simple.i · 26-Фев-10 02:34 (спустя 7 мин.)

[Цитировать] 

Bondar' писал(а):
После того как EAC сделал копию всего диска, я визуально вижу в EAC в столбце Length, что длительность каждого трека копии длиннее оригинала ровно на 2 секунды.
Опять недопонял. Что в Вашем понимании означает "сделал копию"? Если Вы переписываете оригинальный диск на болванку с помощью ЕАС, и после этого появляются (дополнительные) двухсекундные зазоры между треками (в Вашем представлении - длительность трека увеличивается на 2 секунды), то Вам достаточно снять галочку на самом нижнем пункте меню "Layout" ("Add 2 second gap...") ЕАСовской писалки, и эти лишние 2 секунды добавляться не будут.
Только это никак не относится к данной теме.
[Профиль]  [ЛС] 

Bookbookup

Top Seed 01* 40r

Стаж: 10 лет

Сообщений: 359

Bookbookup · 16-Май-10 18:10 (спустя 2 месяца 18 дней)

[Цитировать] 

Вот нашел альтернативный способ снятия прегапа перед первым треком, при котором производится вычисление CRC
скрытый текст
Более наглядный метод: тот, при котором можно своими силами реализовать Test&Copy и при котором, соответственно, будут считаться CRC извлекаемого трека - это метод копирования выбранного диапазона (Copy Range во вкладке Action). Но перед этим нужно получить TOC диска, например, начать извлекать любой трек на диске, остановить извлечение и посмотреть полученный лог-файл (актуально для версий EAC отображающих TOC диска в логе), либо посчитав начальный сектор воспроизведение первого трека вручную, на основе времени старта этого трека (перевести минуты в секунды, секунды – в фреймы и посчитать общее количество фреймов). Далее нужно отнять от полученного числа секторов 1 и мы получим конечный сектор скрытого трека. TOC из примера:
Трек |   Старт  | Длительность | Начальный сектор | Конечный сектор
---------------------------------------------------------------------
1 | 0:19.25 | 1:34.35 | 1450 | 8534
2 | 1:53.60 | 2:39.46 | 8535 | 20505
3 | 4:33.31 | 3:26.44 | 20506 | 35999
4 | 8:00.00 | 3:06.73 | 36000 | 50022
5 | 11:06.73 | 4:16.60 | 50023 | 69282
6 | 15:23.58 | 2:45.49 | 69283 | 81706
7 | 18:09.32 | 5:28.51 | 81707 | 106357
8 | 23:38.08 | 4:40.23 | 106358 | 127380
9 | 28:18.31 | 4:18.40 | 127381 | 146770
10 | 32:36.71 | 4:04.57 | 146771 | 165127
11 | 36:41.53 | 3:55.18 | 165128 | 182770
12 | 40:36.71 | 4:28.17 | 182771 | 202887
13 | 45:05.13 | 3:48.34 | 202888 | 220021
Первый трек начинается с 19 секунды 25 фрейма или:
19*75+25 = 1450 (сектора)
1450 – 1 = 1449
Таким образом, нужно извлечь диапазон секторов начиная с 0 и заканчивая 1449.
Идем в Action -> Copy Range или жмем F7 (Shift F7), вписываем нужные сектора и жмем Ok:

После первого копирования выбранного диапазона, необходимо еще раз его скопировать. При этом предыдущий лог извлечения диапазона дополнится новым логом извлечения. CRC диапазонов в обоих рипах должны совпасть друг с другом, точно также как и с CRC скрытого трека, полученного методом на основе индексов.
Лог извлечения диапазона 0-1449
Exact Audio Copy V0.99 prebeta 5 from 4. May 2009
Отчёт EAC об извлечении, выполненном 16. мая 2010, 18:56
AFI / December Underground
Дисковод: PIONEER DVD-RW DVR-110D Adapter: 1 ID: 1
Режим чтения : Достоверность
Использование точного потока : Да
Отключение кэша аудио : Да
Использование указателей C2 : Нет
Коррекция смещения при чтении : 48
Способность читать области Lead-in и Lead-out : Да
Заполнение пропущенных сэмплов тишиной : Да
Удаление блоков с тишиной в начале и конце : Нет
При вычислениях CRC использовались нулевые сэмплы : Да
Интерфейс : Встроенный Win32-интерфейс для Win NT/2000
Выходной формат : Внутренние WAV-операции
Формат сэмплов : 44.100 Гц; 16 бит; стерео
TOC извлечённого CD
Трек | Старт | Длительность | Начальный сектор | Конечный сектор
---------------------------------------------------------------------
1 | 0:19.25 | 1:34.35 | 1450 | 8534
2 | 1:53.60 | 2:39.46 | 8535 | 20505
3 | 4:33.31 | 3:26.44 | 20506 | 35999
4 | 8:00.00 | 3:06.73 | 36000 | 50022
5 | 11:06.73 | 4:16.60 | 50023 | 69282
6 | 15:23.58 | 2:45.49 | 69283 | 81706
7 | 18:09.32 | 5:28.51 | 81707 | 106357
8 | 23:38.08 | 4:40.23 | 106358 | 127380
9 | 28:18.31 | 4:18.40 | 127381 | 146770
10 | 32:36.71 | 4:04.57 | 146771 | 165127
11 | 36:41.53 | 3:55.18 | 165128 | 182770
12 | 40:36.71 | 4:28.17 | 182771 | 202887
13 | 45:05.13 | 3:48.34 | 202888 | 220021
Характеристики диапазона извлечения и сообщения об ошибках
Выбранный диапазон (Секторы 0-1449)
Имя файла D:\1\_\Range.wav
Пиковый уровень 53.6 %
Качество диапазона 100.0 %
CRC копии C4D702E5
Копирование... OK
Ошибок не произошло
AccurateRip: сводка
Ни один трек не прошёл проверки на точность
Конец отчёта
------------------------------------------------------------
Exact Audio Copy V0.99 prebeta 5 from 4. May 2009
Отчёт EAC об извлечении, выполненном 16. мая 2010, 18:57
AFI / December Underground
Дисковод: PIONEER DVD-RW DVR-110D Adapter: 1 ID: 1
Режим чтения : Достоверность
Использование точного потока : Да
Отключение кэша аудио : Да
Использование указателей C2 : Нет
Коррекция смещения при чтении : 48
Способность читать области Lead-in и Lead-out : Да
Заполнение пропущенных сэмплов тишиной : Да
Удаление блоков с тишиной в начале и конце : Нет
При вычислениях CRC использовались нулевые сэмплы : Да
Интерфейс : Встроенный Win32-интерфейс для Win NT/2000
Выходной формат : Внутренние WAV-операции
Формат сэмплов : 44.100 Гц; 16 бит; стерео
TOC извлечённого CD
Трек | Старт | Длительность | Начальный сектор | Конечный сектор
---------------------------------------------------------------------
1 | 0:19.25 | 1:34.35 | 1450 | 8534
2 | 1:53.60 | 2:39.46 | 8535 | 20505
3 | 4:33.31 | 3:26.44 | 20506 | 35999
4 | 8:00.00 | 3:06.73 | 36000 | 50022
5 | 11:06.73 | 4:16.60 | 50023 | 69282
6 | 15:23.58 | 2:45.49 | 69283 | 81706
7 | 18:09.32 | 5:28.51 | 81707 | 106357
8 | 23:38.08 | 4:40.23 | 106358 | 127380
9 | 28:18.31 | 4:18.40 | 127381 | 146770
10 | 32:36.71 | 4:04.57 | 146771 | 165127
11 | 36:41.53 | 3:55.18 | 165128 | 182770
12 | 40:36.71 | 4:28.17 | 182771 | 202887
13 | 45:05.13 | 3:48.34 | 202888 | 220021
Характеристики диапазона извлечения и сообщения об ошибках
Выбранный диапазон (Секторы 0-1449)
Имя файла D:\1\_\Range.wav
Пиковый уровень 53.6 %
Качество диапазона 100.0 %
CRC копии C4D702E5
Копирование... OK
Ошибок не произошло
AccurateRip: сводка
Ни один трек не прошёл проверки на точность
Конец отчёта
Таким нехитрым способом и реализуется метод Test&Copy при копировании скрытого трека. Собственно, этим же способом иногда пользуются те, кто копирует диски ранними версиями EAC. Способ известный, короче. Далее, трек можно переименовать на свое усмотрение.
[Профиль]  [ЛС] 
 
Ответить
Loading...
Error