Как снять точный потрековый рип аудио CD (инструкция)

Страницы:  1

Тема закрыта
Автор
Сообщение

simple.i

Moderator

Стаж: 9 лет 6 месяцев

Сообщений: 8631

simple.i · 28-Июл-09 20:42 (8 лет 10 месяцев назад, ред. 19-Июл-11 00:40)

[Цитировать] 

Снятие потрекового рипа требует от пользователя большей внимательности и большего числа действий, чем снятие рипа образом. Поэтому новичкам, не имеющим опыта снятия рипов аудио CD с помощью программы Exact Audio Copy (в дальнейшем ЕАС), и особенно тем, кто не сможет полностью разобраться в операциях, описанных в данной инструкции, рекомендуется отказаться от снятия потрековых рипов и следовать методике, описанной в инструкции Как просто снять точный рип аудио CD.
Методика снятия потрековых рипов, описанная в данной инструкции, применима практически для всех аудио CD и экстра-CD (ECD, диски с бонусной мультимедийной информацией), за исключением защищённых дисков и дисков с модифицированной ТОС.
Скачать данную инструкцию в формате CHM для локального использования можно из этой раздачи.
Перед тем как приступить с снятию рипа, следует настроить программу (сверить настройки) согласно рекомендациям:
Настройка ЕАС V1.0 beta 3
Параметры ЕАС


Примечание. Если Вам нужны англоязычные логи извлечения, включите опцию, обведенную на скриншоте синим прямоугольником.

Внимание! Если по окончании снятия рипа файл отчёта не генерируется, и программа выдаёт ошибку, выключите опцию добавления в отчет контрольной суммы. Реализация данной функции на Вашем компьютере аппаратно невозможна.
Внимание! Еслы Вы хотите сохранить информацию о кодах UPC/ISRC, и Ваш привод поддерживает функцию их считывания, можете использовать эту опцию. Однако следует помнить, что при снятии рипа с дисков, выпущенных до 1996-го года (и у некоторых современных) значения кодов могут быть неверными или нулевыми. Сохранение таких кодов в индексной карте может привести к неправильной работе записывающих программ. Опцию считывания кодов UPC/ISRC для подобных дисков рекомендуется отключать.
Внимание! Дополнительные опции плейлиста m3u могут быть использованы по Вашему желанию. Однако следует учитывать, что использование дополнительных опций может привести к ограничению числа плейеров, понимающих такой плейлист.

Внимание! Если Вас интересуют только полные и точные лосслесс рипы, никогда ничего не включайте на вкладке "Нормализация" и вообще забудьте о её существовании.

Внимание! Имена файлов должны обязательно начинаться с номера трека и содержать название композиции. Для сборников разных исполнителей в названии файла рекомендуется указывать и имя артиста. Дополнительные данные в имена файлов можно добавлять по желанию.
Рекомендуемые шаблоны
Для альбомов одного исполнителя:
%tracknr2%. %title%
%tracknr2% - %title%
Для сборников разных исполнителей:
%tracknr2%. %artist% - %title%
%tracknr2% - %artist% - %title%
Для трибьют-альбомов:
%tracknr2%. %title% [%artist%]
%tracknr2% - %title% [%artist%]
Внимание! Использование нижнего подчёркивания вместо пробела в именах файлов запрещено!

Включите компонент CUETools DB Plugin, если хотите использовать плагин для дополнительной проверки рипа по базе CUETools DB и отправки данных о рипе в эту базу, с генерацией соответствующей записи в логе извлечения.
Внимание! Если Вы планируете использовать данный плагин только в качестве дополнительного поставщика метаданных, включать его на этой вкладке не нужно.
Предупреждение пользователям CTDB Plugin
Если у Вашего рипа, в результате проверки, будут найдены расхождения с данными из базы CUETools DB, в логе извлечения Вы увидите приглашение откорректировать рип в программе CUETools. Ни в коем случае не проводите эту операцию. Рипы изменённые в сторонних программах к размещению на трекере запрещены.

Содержимое остальных вкладок, не представленных на скриншотах, на на порядок и качество извлечения аудиоданных не влияет.
Использование внешнего интерфейса (опционально)
Если с внутренним интерфейсом ЕАС не видит Вашего привода (приводов), установите внешний интерфейс.
Скачайте интерфейсную библиотеку по адресу ftp://ftp6.ahead.de/wnaspi32.dll и поместите её в корневую папку установки ЕАС.
Нажмите F9, выберите вкладку Интерфейс и установите переключатель как указано на скриншоте:

Сохраните настройки, выйдите из программы и снова запустите её, чтобы настройки вступили в силу.
Параметры дисковода
Внимание! Настройки выделенные красными прямоугольниками следует соблюдать неукоснительно.



Внимание! В поле обозначенное красным прямоугольником нужно вписать правильное значение коррекции смещения для выбранного привода.
Это значение находится по таблице базы AccurateRip - http://www.accuraterip.com/driveoffsets.htm . При поиске этого значения используйте полное наименование модели привода, вплоть до последней буквы. Если Вашего привода нет в таблице, то определить его смещение можно по ключевому диску при настройке ЕАС для работы с базой AccurateRip.
Примечание. Используйте опцию выделенную синим прямоугольником только если Вы на 100% уверены, что Ваш привод поддерживает чтение обоих экстраобластей - Lead-In и Lead-Out. Неправильное использование опции может привести к ошибкам извлечения.

Внимание! Если ЕАС не сможет самостоятельно определить команду чтения, что бывает крайне редко, попробуйте установить команду чтения вручную, например, как указано на скриншоте:

Но лучший выход в таком случае - сменить привод.
Параметры сжатия
1. Настраиваете ЕАС для работы с выбранным кодировщиком.

1.1. В списке "Схема передачи параметров" выбираете "Пользовательский кодировщик".
1.2. В поле обозначенное зелёным прямоугольником вписываете расширение файла используемого кодировщика.
1.3. Нажимаете кнопку "Обзор" и указываете путь к исполняемому файлу кодировщика (находите исполняемый файл в открывшемся окне проводника).
1.4. В поле обозначенное синим прямоугольником вписываете дополнительные параметры командной строки кодировщика.
Обязательные параметры для некоторых лосслесс кодировщиков
FLAC
Входит в поставку ЕАС, находится в подпапке "Flac" установки программы.
Последнюю версию можно скачать отсюда - http://flac.sourceforge.net/download.html
Расширение файла: .flac
Исполняемый файл: flac.exe
Параметры командной строки: -V -8 -T "Genre=%genre%" -T "Artist=%artist%" -T "Title=%title%" -T "Album=%albumtitle%" -T "Date=%year%" -T "Tracknumber=%tracknr%" -T "Comment=%comment%" %source%
WavPack
Скачивают исполняемые файлы кодировщика отсюда - http://www.wavpack.com/downloads.html
Расширение файла: .wv
Исполняемый файл: wavpack.exe
Параметры командной строки: -hm -w "Genre=%genre%" -w "Artist=%artist%" -w "Title=%title%" -w "Album=%albumtitle%" -w "Year=%year%" -w "Track=%tracknr%" -w "Comment=%comment%" %source% %dest%
Monkey's Audio (APE)
Скачивают установщик отсюда - http://www.monkeysaudio.com/download.html
А программу для записи тэгов отсюда - http://www.mediafire.com/?mmwjmnjwmn2
Расширение файла: .ape
Исполняемый файл: wapet.exe (должен быть предварительно помещён в одну папку с файлом MAC.exe)
Параметры командной строки: %dest% -t "Genre=%genre%" -t "Artist=%artist%" -t "Title=%title%" -t "Album=%albumtitle%" -t "Year=%year%" -t "Track=%tracknr%" -t "Comment=%comment%" mac.exe %source% %dest% -c3000
В строку кодировщика Вы можете произвольно добавить и дополнительные параметры, которые считаете необходимыми для сохранения более полной информации о диске.
Все переменные строки кодировщика
%source% – исходное имя файла передаваемого кодировщику
%dest% – имя файла лосслесс контейнера на выходе кодировщика
%original% – оригинальное имя файла без промежуточного переименования (применяется для работы с кодировщиками, не имеющими кодов возврата)
%ishigh%…%ishigh% – Text “…” только если выбран пункт "Высокое качество"
%islow%…%islow% -Text “…” только если выбран пункт "Низкое качество"
%haslyrics%…%haslyrics% – Text “…” только если присутствуют тексты песен
%hascover%…%hascover% – Text “…” только если выбран режим сохранения обложки, и обложка присутствует
%crcenabled%…%crcenabled% – Text “…” только если выбрано сохранение контрольной суммы
%title% – название трека
%genre% – музыкальный жанр
%year% – год
%cddbid% – идентификатор диска используемый для поиска по базе freedb
%artist% – артист/исполниель композиции трека
%lyrics% – текст песни
%lyricsfile% – имя файла (в кодировке ANSI) содержащего текст песни
%bitrate% – битрейт (“32″..”320″)
%comment% – комментарий (выбранный и прописанный на вкладке "Смещение" настроек сжатия)
%tracknr% – номер трека
%totalcds% – общее количество дисков для многодискового издания
%cdnumber% – номер диска в многодисковом издании
%composer% – композитор/автор трека
%trackcrc% – CRC извлечённого трека
%coverfile% – имя файла содержащего обложку диска
%numtracks% – количество треков на диске
%albumtitle% – название альбома
%albumartist% – артист/исполнитель альбома (для альбома одного исполнителя)
%albumcomposer% – композитор/автор музыки к альбому
%albuminterpret% – исполнитель/интерпретатор альбома
%% – используется, если в командной строке нужно передать символ ‘%’
2. Выбираете информацию, которая будет прописана в тэг "COMMENT" лосслесс контейнера, из предложенных вариантов или добавляете в поле ввода свою произвольную информацию.

Внимание! В предыдущих версиях ЕАС на вкладке Смещение параметров сжатия была опция "Смещение сжатия". В настоящей версии она отсутствует. Если Вы настраиваете старую версию ЕАС, ни в коем случае не используйте эту опцию.
Параметры метаданных

Внимание! В поле обозначенное красным прямоугольником следует внести свой e-mail. Если это поле останется незаполненным, Вы не сможете пользоваться функцией поиска информации о диске для автозаполнения тэгов.

Перебирая поставщиков метаданных в поле выбора, Вы можете настроить дополнительные параметры для каждого из них, если таковые имеются. Да установки дополнительных параметров нажмите кнопку на панели.
Дополнительные параметры freedb:

Здесь Вы можете настроить или отключить функции поиска картинок и текстов песен.
Дополнительные параметры CUETools DB:

Здесь настраивается глубина поиска информации.
Активация функции проверки рипов по базе AccurateRip
Для активации этой функции в ЕАС необходимо наличие так называемого ключевого диска (Key Disk). Как только диск, который по мнению ЕАС может являться ключевым, попадает в привод, ЕАС открывает окно приглашения к конфигурированию

Нажимаете кнопку "Configure" и ждёте результат.
Если диск не является ключевым, по истечении некоторого времени Вы увидете окно

Это значит, что попытка не удалась и нужно пробовать следующий диск.
Если информации о Вашем приводе нет в базе AccurateRip, в лоток привода вставлена лицензионная, пиратская копия оригинального диска, или его копия, записанная на CD-R, то ЕАС попросит вставить ещё несколько (до 3-х) дисков, для определения точного смещения, и Вы увидите окно

Внимание! Используйте для конфигурирования только оригинальные диски.
Когда же Вы увидите такое окно

то вставленный диск является ключевым и ЕАС сконфигурирована для работы с базой AccurateRip.
После активации функции проверки, вкладка "Смещение и скорость" в настройках привода будет выглядеть следующим образом

Сводка проверки Вашего рипа по базе AccurateRip будет автоматически добавляться в отчёт снятия рипа.
После того, как программа правильно настроена (настройки проверены) можно приступать к самой процедуре снятия рипа.Снятие точного потрекового рипа1. Вставьте диск в CD-привод. При необходимости заполните (исправьте) тэговую информацию о диске.
2. Нажмите F4 (меню Действия -> Определить зазоры).
3. Оцените величину предзазора первого трека:
Если интервал равен ровно 2-м секундам
пример
переходите к пункту 5.
Если интервал больше 2-х секунд
примеры


Выделенный красным цветом первый трек означает, что предзазор содержит скрытую музыкальную или мультимедийную информацию. О наличии мультимедийной информации (скрытый дата-трек, встречается на дисках выпущенных до 1996 года) обычно есть упоминание на обложке или в буклете издания. Упоминания о скрытом в предзазоре музыкальном треке в полиграфии издания может не быть.
4. Протестируйте зазоры на тишину, для чего нажмите F3 (меню Действия -> Проверить зазоры на тишину).
В появившемся окне тестирования оцените содержимое зазоров. Если в зазоре первого трека тишина 100%
пример
информацию с предзазора снимать не нужно.
Если информация в зазоре отлична от тишины 100%
пример
нужно снять информацию с предзазора первого трека. После снятия основного рипа, нужно дополнительно выполнить п. 9 инструкции.
Исключение
Если тишина в предзазоре первого трека не равна 100%, но более 90% (вплоть до 99.9% для скрытого трека), то, скорее всего, Ваш привод не поддерживает чтение из предзазора. В этом случае снимать информацию с предзазора на данном приводе нет никакого смысла (и возможности), даже если в предзазоре скрыт музыкальный трек.
Если величина предзазора первого трека более 2-х секунд, скриншот окошка тестирования зазоров на тишину желательно поместить в раздачу, чтобы другие пользователи убедились в правильности и полноте снятия потрекового рипа.
5. Установите методику обработки зазоров, выбрав пукт меню Действия -> Добавлять зазор к предыдущему треку (по умолчанию).
Исключение
Если предзазор первого трека больше 2-х секунд, не содержит тишины и не является скрытым музыкальным треком, а у остальных треков нет зазоров (равны нулю), как показано на рисунке

целесообразно выбрать методику обработки зазоров Добавлять зазор к следующему треку. В этом случае снимать предзазор первого трека отдельно не нужно.
6. Создайте CUE-файл - меню Действия -> Создать индексную карту (CUE Sheet) -> С текущими настройками зазоров.
7. Для снятия потрекового рипа нажмите комбинацию клавиш Shift+F6 (меню Действия -> Протестировать и скопировать выбранные треки -> в сжатом виде). По завершению процедуры снятия рипа нажмите кнопку ОК.
8. Проверьте колонку CRC главного окна ЕАС. Если для всех треков указано "ОК" - контрольные суммы (CRC) проходов тестирования и копирования совпадают.
Основная процедура снятия потрекового рипа завершена.
9. Если диск содержит ненулевой предзазор первого трека длительностью более 2-х секунд (см. пп. 3, 4) или скрытый в нём музыкальный трек, снимаете информацию с предзазора, выбрав необходимую методику.
Снятие информации с предзазора первого трека, не являющегося скрытым музыкальным треком
9.1. Изменяете настройки ЕАС:
Нажимаете F9 (меню EAC -> Параметры EAC), закладка Разное, снимаете галочку с пункта Автоматически сохранять отчёт после извлечения звуковых данных.
Разное
Теперь, по окончании операции снятия аудиоданных, файл отчёта генерироваться не будет.
9.2. Выбираете только первый трек в главном окне ЕАС.
9.3. Нажимаете комбинацию клавиш Alt+Shift+X (меню Действия -> Скопировать выбранные треки с разбиением на файлы по каждому индексу -> в сжатом виде). Как только закончится снятие предзазора, в окне Извлечение аудиоданных появится надпись "Копирование трека 1, Индекс 1", жмёте кнопку Отмена прерывая операцию.
Извлечение аудиоданных
9.4. Открываете папку с сохранёнными файлами рипа и переименовываете файл предзазора, который выглядит "01.00 Название_первого_трека.ext" (где ext - расширение контейнера выбранного кодировщика), согласно установленному Вами в настройках шаблону наименования файлов с нулевым номером трека (например, "00. Название_первого_трека.ext"). Файл с именем "01.01 Название_первого_трека.ext" удаляете. К имени файла можно также добавить заключённое в скобки обозначение (HTOA), как признак предзазора.
Внимание! Если в процессе снятия предзазора Вы наблюдали на дисплее ошибок в окне Извлечение аудиоданных ярко красные точки, пункт 9.3. следует повторить и сравнить данные, после разжатия, с помощью функции ЕАС меню Сервис -> Сравнить WAV-файлы.
9.5. Редактируете CUE-файл.
Noncompilant CUE (CUE Sheet с несовместимым систаксисом) генерируемый ЕАС не учитывает наличие дополнительного файла предзазора, поэтому, по окончании процедуры снятия, придётся учесть наличие этого файла в текте CUE Sheet вручную.
Оригинальный Noncompilant CUE Sheet
REM GENRE Jazz
REM DATE 1984
REM DISCID 720BD307
REM COMMENT "ExactAudioCopy v0.99pb5"
CATALOG 0042282327024
PERFORMER "Pat Metheny"
TITLE "Works"
FILE "01 - Sueno Con Mexico.wav" WAVE
TRACK 01 AUDIO
TITLE "Sueno Con Mexico"
PERFORMER "Pat Metheny"
PREGAP 00:00:32
INDEX 01 00:00:00
TRACK 02 AUDIO
TITLE "(Cross The) Heartland"
PERFORMER "Pat Metheny"
INDEX 00 05:57:63
FILE "02 - (Cross The) Heartland.wav" WAVE
INDEX 01 00:00:00
TRACK 03 AUDIO
TITLE "Travels"
PERFORMER "Pat Metheny"
INDEX 00 06:51:53
FILE "03 - Travels.wav" WAVE
INDEX 01 00:00:00
TRACK 04 AUDIO
TITLE "James"
PERFORMER "Pat Metheny"
INDEX 00 05:01:02
FILE "04 - James.wav" WAVE
INDEX 01 00:00:00
TRACK 05 AUDIO
TITLE "'It's For You'"
PERFORMER "Pat Metheny"
INDEX 00 06:43:73
FILE "05 - 'It's For You'.wav" WAVE
INDEX 01 00:00:00
TRACK 06 AUDIO
TITLE "Everyday (I Thank You)"
PERFORMER "Pat Metheny"
INDEX 00 08:18:05
FILE "06 - Everyday (I Thank You).wav" WAVE
INDEX 01 00:00:00
TRACK 07 AUDIO
TITLE "Goin' Ahead"
PERFORMER "Pat Metheny"
INDEX 00 13:15:00
FILE "07 - Goin' Ahead.wav" WAVE
INDEX 01 00:00:00
Отредактированный Noncompilant CUE Sheet
REM GENRE Jazz
REM DATE 1984
REM DISCID 720BD307
REM COMMENT "ExactAudioCopy v0.99pb5"
CATALOG 0042282327024
PERFORMER "Pat Metheny"
TITLE "Works"
FILE "00 - Sueno Con Mexico.wav" WAVE
TRACK 01 AUDIO
TITLE "Sueno Con Mexico"
PERFORMER "Pat Metheny"
INDEX 00 00:00:00
FILE "01 - Sueno Con Mexico.wav" WAVE
INDEX 01 00:00:00
TRACK 02 AUDIO
TITLE "(Cross The) Heartland"
PERFORMER "Pat Metheny"
INDEX 00 05:57:63
FILE "02 - (Cross The) Heartland.wav" WAVE
INDEX 01 00:00:00
TRACK 03 AUDIO
TITLE "Travels"
PERFORMER "Pat Metheny"
INDEX 00 06:51:53
FILE "03 - Travels.wav" WAVE
INDEX 01 00:00:00
TRACK 04 AUDIO
TITLE "James"
PERFORMER "Pat Metheny"
INDEX 00 05:01:02
FILE "04 - James.wav" WAVE
INDEX 01 00:00:00
TRACK 05 AUDIO
TITLE "'It's For You'"
PERFORMER "Pat Metheny"
INDEX 00 06:43:73
FILE "05 - 'It's For You'.wav" WAVE
INDEX 01 00:00:00
TRACK 06 AUDIO
TITLE "Everyday (I Thank You)"
PERFORMER "Pat Metheny"
INDEX 00 08:18:05
FILE "06 - Everyday (I Thank You).wav" WAVE
INDEX 01 00:00:00
TRACK 07 AUDIO
TITLE "Goin' Ahead"
PERFORMER "Pat Metheny"
INDEX 00 13:15:00
FILE "07 - Goin' Ahead.wav" WAVE
INDEX 01 00:00:00
Как это сделать быстро и правильно
Выделяете и копируете в буфер самый первый тэг FILE
Цитата:
FILE "01 - Sueno Con Mexico.wav" WAVE
TRACK 01 AUDIO
TITLE "Sueno Con Mexico"
PERFORMER "Pat Metheny"
PREGAP 00:00:32
INDEX 01 00:00:00
Вставляете его между тэгами PREGAP и INDEX 01 первого трека.
Цитата:
FILE "01 - Sueno Con Mexico.wav" WAVE
TRACK 01 AUDIO
TITLE "Sueno Con Mexico"
PERFORMER "Pat Metheny"
PREGAP 00:00:32
FILE "01 - Sueno Con Mexico.wav" WAVE
INDEX 01 00:00:00
Открываете папку с сохранённым рипом, копируете в буфер имя файла предзазора без расширения и вставляете его внутри кавычек в первом тэге FILE вместо имени файла первого трека.
Цитата:
FILE "00 - Sueno Con Mexico.wav" WAVE
TRACK 01 AUDIO
TITLE "Sueno Con Mexico"
PERFORMER "Pat Metheny"
PREGAP 00:00:32
FILE "01 - Sueno Con Mexico.wav" WAVE
INDEX 01 00:00:00
Тэг PREGAP вместе со значением заменяете на INDEX 00 00:00:00 (вставляете через буфер на его место копию тэга INDEX 01 00:00:00 и меняете 1 на 0)
Цитата:
FILE "00 - Sueno Con Mexico.wav" WAVE
TRACK 01 AUDIO
TITLE "Sueno Con Mexico"
PERFORMER "Pat Metheny"
INDEX 00 00:00:00
FILE "01 - Sueno Con Mexico.wav" WAVE
INDEX 01 00:00:00
Всё.
Помните! Редактируя вручную CUE-файл Вы берёте на себя ответственность за возможные ошибки.
Оригинальный файл CUE, сгенерированный ЕАС, сохраняете и помещаете в раздачу вместе с отредактированным рабочим CUE.
9.6. Восстанавливаете настройки ЕАС, изменённые в п. 9.1.
Снятие информации с предзазора первого трека, являющегося скрытым музыкальным треком
9.1. Выбираете только первый трек в главном окне ЕАС.
9.2. Нажимаете F7 (меню Действия -> Скопировать диапазон -> в несжатом виде).
9.3. Настраиваете диапазон снятия данных.
В вержнем поле ввода Блок устанавливаете значение "0" - это начало диапазона.
В нижее поле ввода Блок копируете из отчёта снятия рипа номер стартового сектора первого трека и уменьшаете его на единицу - это конец диапазона.
Фрагмент отчёта снятия основного рипа
Правильно настроенный диапазон
9.4. Нажимате кнопку ОК, в открывшемся окне проводника вводите название скрытого трека, нажимаете кнопку "Сохранить" и производите снятие данных.
Внимание! Если композиция скрытого трека имеет название отличное от названия первого трека, то это должно быть отражено и в имени файла.
9.5. Нажимаете Shift+F7 (меню Действия -> Скопировать диапазон -> в сжатом виде).
9.6. Настраиваете диапазон как указано в п. 9.3., нажимате кнопку ОК, в открывшемся окне проводника вводите то же самое название скрытого трека, которое вводили выполняя п. 9.4., нажимаете кнопку "Сохранить" и производите повторное снятие данных.
9.7. Добавляете к имени полученного файла "Название_скрытого_трека.ext" (где ext - расширение файла контейнера выбранного упаковщика) нулевой номер трека, согласно установленного Вами в настройках шаблона наименования файлов (например, "00. Название_скрытого_трека.ext").
9.8. Редактируете CUE-файл.
Noncompilant CUE (CUE Sheet с несовместимым систаксисом) генерируемый ЕАС не учитывает наличие дополнительного файла предзазора, поэтому, по окончании процедуры снятия, придётся учесть наличие этого файла в текте CUE Sheet вручную.
Оригинальный Noncompilant CUE Sheet
REM GENRE Jazz
REM DATE 2003
REM DISCID 9F0C420A
REM COMMENT "ExactAudioCopy v1.0b2"
PERFORMER "Bela Fleck & The Flecktones"
TITLE "Little Worlds"
FILE "01 - Bil Mon.wav" WAVE
TRACK 01 AUDIO
TITLE "Bil Mon"
PERFORMER "Bela Fleck & The Flecktones"
PREGAP 03:36:20
INDEX 01 00:00:00
FILE "02 - The Ballad Of Jed Clampett.wav" WAVE
TRACK 02 AUDIO
TITLE "The Ballad Of Jed Clampett"
PERFORMER "Bela Fleck & The Flecktones"
INDEX 01 00:00:00
TRACK 03 AUDIO
TITLE "Puffy"
PERFORMER "Bela Fleck & The Flecktones"
INDEX 00 04:06:35
FILE "03 - Puffy.wav" WAVE
INDEX 01 00:00:00
FILE "04 - New Math.wav" WAVE
TRACK 04 AUDIO
TITLE "New Math"
PERFORMER "Bela Fleck & The Flecktones"
INDEX 01 00:00:00
FILE "05 - Longitude.wav" WAVE
TRACK 05 AUDIO
TITLE "Longitude"
PERFORMER "Bela Fleck & The Flecktones"
INDEX 01 00:00:00
FILE "06 - Latitude.wav" WAVE
TRACK 06 AUDIO
TITLE "Latitude"
PERFORMER "Bela Fleck & The Flecktones"
INDEX 01 00:00:00
FILE "07 - Centrifuge.wav" WAVE
TRACK 07 AUDIO
TITLE "Centrifuge"
PERFORMER "Bela Fleck & The Flecktones"
INDEX 01 00:00:00
FILE "08 - Off The Top (The Gravity Wheel).wav" WAVE
TRACK 08 AUDIO
TITLE "Off The Top (The Gravity Wheel)"
PERFORMER "Bela Fleck & The Flecktones"
INDEX 01 00:00:00
FILE "09 - Off The Top (Line Dance).wav" WAVE
TRACK 09 AUDIO
TITLE "Off The Top (Line Dance)"
PERFORMER "Bela Fleck & The Flecktones"
INDEX 01 00:00:00
TRACK 10 AUDIO
TITLE "Follow The Line"
PERFORMER "Bela Fleck & The Flecktones"
INDEX 00 04:53:64
FILE "10 - Follow The Line.wav" WAVE
INDEX 01 00:00:00
Отредактированный Noncompilant CUE Sheet
REM GENRE Jazz
REM DATE 2003
REM DISCID 9F0C420A
REM COMMENT "ExactAudioCopy v1.0b2"
PERFORMER "Bela Fleck & The Flecktones"
TITLE "Little Worlds"
FILE "00 - Radio-Flash.wav" WAVE
TRACK 01 AUDIO
TITLE "Bil Mon"
PERFORMER "Bela Fleck & The Flecktones"
INDEX 00 00:00:00
FILE "01 - Bil Mon.wav" WAVE
INDEX 01 00:00:00
FILE "02 - The Ballad Of Jed Clampett.wav" WAVE
TRACK 02 AUDIO
TITLE "The Ballad Of Jed Clampett"
PERFORMER "Bela Fleck & The Flecktones"
INDEX 01 00:00:00
TRACK 03 AUDIO
TITLE "Puffy"
PERFORMER "Bela Fleck & The Flecktones"
INDEX 00 04:06:35
FILE "03 - Puffy.wav" WAVE
INDEX 01 00:00:00
FILE "04 - New Math.wav" WAVE
TRACK 04 AUDIO
TITLE "New Math"
PERFORMER "Bela Fleck & The Flecktones"
INDEX 01 00:00:00
FILE "05 - Longitude.wav" WAVE
TRACK 05 AUDIO
TITLE "Longitude"
PERFORMER "Bela Fleck & The Flecktones"
INDEX 01 00:00:00
FILE "06 - Latitude.wav" WAVE
TRACK 06 AUDIO
TITLE "Latitude"
PERFORMER "Bela Fleck & The Flecktones"
INDEX 01 00:00:00
FILE "07 - Centrifuge.wav" WAVE
TRACK 07 AUDIO
TITLE "Centrifuge"
PERFORMER "Bela Fleck & The Flecktones"
INDEX 01 00:00:00
FILE "08 - Off The Top (The Gravity Wheel).wav" WAVE
TRACK 08 AUDIO
TITLE "Off The Top (The Gravity Wheel)"
PERFORMER "Bela Fleck & The Flecktones"
INDEX 01 00:00:00
FILE "09 - Off The Top (Line Dance).wav" WAVE
TRACK 09 AUDIO
TITLE "Off The Top (Line Dance)"
PERFORMER "Bela Fleck & The Flecktones"
INDEX 01 00:00:00
TRACK 10 AUDIO
TITLE "Follow The Line"
PERFORMER "Bela Fleck & The Flecktones"
INDEX 00 04:53:64
FILE "10 - Follow The Line.wav" WAVE
INDEX 01 00:00:00
Как это сделать быстро и правильно
Выделяете и копируете в буфер самый первый тэг FILE
Цитата:
FILE "01 - Bil Mon.wav" WAVE
TRACK 01 AUDIO
TITLE "Bil Mon"
PERFORMER "Bela Fleck & The Flecktones"
PREGAP 03:36:20
INDEX 01 00:00:00
Вставляете его между тэгами PREGAP и INDEX 01 первого трека.
Цитата:
FILE "01 - Bil Mon.wav" WAVE
TRACK 01 AUDIO
TITLE "Bil Mon"
PERFORMER "Bela Fleck & The Flecktones"
PREGAP 03:36:20
FILE "01 - Bil Mon.wav" WAVE
INDEX 01 00:00:00
Открываете папку с сохранённым рипом, копируете в буфер имя файла предзазора без расширения и вставляете его внутри кавычек в первом тэге FILE вместо имени файла первого трека.
Цитата:
FILE "00 - Radio-Flash.wav" WAVE
TRACK 01 AUDIO
TITLE "Bil Mon"
PERFORMER "Bela Fleck & The Flecktones"
PREGAP 03:36:20
FILE "01 - Bil Mon.wav" WAVE
INDEX 01 00:00:00
Тэг PREGAP вместе со значением заменяете на INDEX 00 00:00:00 (вставляете через буфер на его место копию тэга INDEX 01 00:00:00 и меняете 1 на 0)
Цитата:
FILE "00 - Radio-Flash.wav" WAVE
TRACK 01 AUDIO
TITLE "Bil Mon"
PERFORMER "Bela Fleck & The Flecktones"
INDEX 00 00:00:00
FILE "01 - Bil Mon.wav" WAVE
INDEX 01 00:00:00
Всё.
Помните! Редактируя вручную CUE-файл Вы берёте на себя ответственность за возможные ошибки.
Оригинальный файл CUE, сгенерированный ЕАС, сохраняете и помещаете в раздачу вместе с отредактированным рабочим CUE.
9.9. Добавляете скрытый трек в плейлист .m3u.
9.10. Обязательно прописываете все требуемые тэги контейнера скрытого трека в любой программе, способной это сделать (например Mp3tag).
Внимание! Сгенерированный ЕАС файл отчёта (Название_скрытого_трека.log) должен быть сохранён и помещён в раздачу.

Примеры листингов правильно снятых потрековых рипов
Рип диска со стандартным двухсекундным предзазором первого трека
Лог создания рипа
Exact Audio Copy V1.0 beta 2 from 29. April 2011
EAC extraction logfile from 9. June 2011, 21:47
Fourplay / Elixir
Used drive : HL-DT-STDVD-RAM GSA-H55N Adapter: 0 ID: 2
Read mode : Secure
Utilize accurate stream : Yes
Defeat audio cache : Yes
Make use of C2 pointers : No
Read offset correction : 102
Overread into Lead-In and Lead-Out : Yes
Fill up missing offset samples with silence : Yes
Delete leading and trailing silent blocks : No
Null samples used in CRC calculations : Yes
Used interface : Installed external ASPI interface
Gap handling : Appended to previous track
Used output format : User Defined Encoder
Selected bitrate : 128 kBit/s
Quality : High
Add ID3 tag : No
Command line compressor : G:\Program Files\Exact Audio Copy\Encoder\flac.exe
Additional command line options : -V -8 -T "Genre=%genre%" -T "Artist=%artist%" -T "Title=%title%" -T "Album=%albumtitle%" -T "Date=%year%" -T "Tracknumber=%tracknr%" -T "Comment=EAC1.0b2 FLAC -8" %source%
TOC of the extracted CD
Track | Start | Length | Start sector | End sector
---------------------------------------------------------
1 | 0:00.00 | 7:25.30 | 0 | 33404
2 | 7:25.30 | 5:16.27 | 33405 | 57131
3 | 12:41.57 | 4:37.10 | 57132 | 77916
4 | 17:18.67 | 5:19.15 | 77917 | 101856
5 | 22:38.07 | 6:28.48 | 101857 | 131004
6 | 29:06.55 | 6:12.52 | 131005 | 158956
7 | 35:19.32 | 5:31.08 | 158957 | 183789
8 | 40:50.40 | 5:01.47 | 183790 | 206411
9 | 45:52.12 | 5:56.50 | 206412 | 233161
10 | 51:48.62 | 5:12.60 | 233162 | 256621
11 | 57:01.47 | 6:55.73 | 256622 | 287819
Track 1
Filename F:\WAV\01 - Elixir.wav
Pre-gap length 0:00:02.00
Peak level 100.0 %
Extraction speed 5.4 X
Track quality 100.0 %
Test CRC 450A2C49
Copy CRC 450A2C49
Accurately ripped (confidence 6) [9F04018E] (AR v2)
Copy OK
Track 2
Filename F:\WAV\02 - Dream Come True.wav
Pre-gap length 0:00:01.00
Peak level 97.6 %
Extraction speed 5.3 X
Track quality 99.9 %
Test CRC 751827C8
Copy CRC 751827C8
Accurately ripped (confidence 6) [266FCE3C] (AR v2)
Copy OK
Track 3
Filename F:\WAV\03 - Play Lady Play.wav
Pre-gap length 0:00:00.65
Peak level 98.6 %
Extraction speed 6.2 X
Track quality 100.0 %
Test CRC EA11B787
Copy CRC EA11B787
Accurately ripped (confidence 6) [754DC15A] (AR v2)
Copy OK
Track 4
Filename F:\WAV\04 - Why Can't It Wait Till Morning.wav
Pre-gap length 0:00:00.37
Peak level 95.6 %
Extraction speed 6.7 X
Track quality 100.0 %
Test CRC A77B05C9
Copy CRC A77B05C9
Accurately ripped (confidence 6) [5E7974F5] (AR v2)
Copy OK
Track 5
Filename F:\WAV\05 - Magic Carpet Ride.wav
Pre-gap length 0:00:01.52
Peak level 96.1 %
Extraction speed 7.3 X
Track quality 100.0 %
Test CRC 030829F7
Copy CRC 030829F7
Accurately ripped (confidence 6) [583B3622] (AR v2)
Copy OK
Track 6
Filename F:\WAV\06 - Wisper In My Ear.wav
Pre-gap length 0:00:01.00
Peak level 95.7 %
Extraction speed 7.6 X
Track quality 100.0 %
Test CRC FB095AE8
Copy CRC FB095AE8
Accurately ripped (confidence 6) [41B91D31] (AR v2)
Copy OK
Track 7
Filename F:\WAV\07 - Fannie Mae.wav
Pre-gap length 0:00:00.25
Peak level 100.0 %
Extraction speed 8.1 X
Track quality 100.0 %
Test CRC 9E422E11
Copy CRC 9E422E11
Accurately ripped (confidence 6) [6140688C] (AR v2)
Copy OK
Track 8
Filename F:\WAV\08 - The Closer I Get To You.wav
Pre-gap length 0:00:00.23
Peak level 95.6 %
Extraction speed 8.2 X
Track quality 100.0 %
Test CRC F105492D
Copy CRC F105492D
Accurately ripped (confidence 6) [E0BF50AC] (AR v2)
Copy OK
Track 9
Filename F:\WAV\09 - East 2 West.wav
Peak level 100.0 %
Extraction speed 8.2 X
Track quality 100.0 %
Test CRC 7D3D59D4
Copy CRC 7D3D59D4
Accurately ripped (confidence 6) [F2735B87] (AR v2)
Copy OK
Track 10
Filename F:\WAV\10 - Licorice.wav
Peak level 100.0 %
Extraction speed 8.9 X
Track quality 100.0 %
Test CRC 0760FBE5
Copy CRC 0760FBE5
Accurately ripped (confidence 6) [758B1EE3] (AR v2)
Copy OK
Track 11
Filename F:\WAV\11 - In My Corner.wav
Pre-gap length 0:00:00.42
Peak level 99.8 %
Extraction speed 6.5 X
Track quality 99.9 %
Test CRC C631E221
Copy CRC C631E221
Accurately ripped (confidence 6) [560555C3] (AR v2)
Copy OK
All tracks accurately ripped
No errors occurred
End of status report
==== Log checksum 2129436C402736164D99569CFB6C72331698C9549BC32B6DE63B4F1812848439 ====
Содержание индексной карты (.CUE)
REM GENRE Jazz
REM DATE 1995
REM DISCID 7A0EFD0B
REM COMMENT "ExactAudioCopy v1.0b2"
CATALOG 9362459220202
PERFORMER "Fourplay"
TITLE "Elixir"
FILE "01 - Elixir.wav" WAVE
TRACK 01 AUDIO
TITLE "Elixir"
PERFORMER "Fourplay"
INDEX 01 00:00:00
TRACK 02 AUDIO
TITLE "Dream Come True"
PERFORMER "Fourplay"
INDEX 00 07:24:30
FILE "02 - Dream Come True.wav" WAVE
INDEX 01 00:00:00
TRACK 03 AUDIO
TITLE "Play Lady Play"
PERFORMER "Fourplay"
INDEX 00 05:15:37
FILE "03 - Play Lady Play.wav" WAVE
INDEX 01 00:00:00
TRACK 04 AUDIO
TITLE "Why Can't It Wait Till Morning"
PERFORMER "Fourplay"
INDEX 00 04:36:48
FILE "04 - Why Can't It Wait Till Morning.wav" WAVE
INDEX 01 00:00:00
TRACK 05 AUDIO
TITLE "Magic Carpet Ride"
PERFORMER "Fourplay"
INDEX 00 05:17:38
FILE "05 - Magic Carpet Ride.wav" WAVE
INDEX 01 00:00:00
TRACK 06 AUDIO
TITLE "Wisper In My Ear"
PERFORMER "Fourplay"
INDEX 00 06:27:48
FILE "06 - Wisper In My Ear.wav" WAVE
INDEX 01 00:00:00
TRACK 07 AUDIO
TITLE "Fannie Mae"
PERFORMER "Fourplay"
INDEX 00 06:12:27
FILE "07 - Fannie Mae.wav" WAVE
INDEX 01 00:00:00
TRACK 08 AUDIO
TITLE "The Closer I Get To You"
PERFORMER "Fourplay"
INDEX 00 05:30:60
FILE "08 - The Closer I Get To You.wav" WAVE
INDEX 01 00:00:00
FILE "09 - East 2 West.wav" WAVE
TRACK 09 AUDIO
TITLE "East 2 West"
PERFORMER "Fourplay"
INDEX 01 00:00:00
FILE "10 - Licorice.wav" WAVE
TRACK 10 AUDIO
TITLE "Licorice"
PERFORMER "Fourplay"
INDEX 01 00:00:00
TRACK 11 AUDIO
TITLE "In My Corner"
PERFORMER "Fourplay"
INDEX 00 05:12:18
FILE "11 - In My Corner.wav" WAVE
INDEX 01 00:00:00
Рип диск с предзазором первого трека большим 2-х секунд, с нулевыми данными в предзазоре
Лог создания рипа
Exact Audio Copy V1.0 beta 2 from 29. April 2011
EAC extraction logfile from 9. June 2011, 20:58
Fourplay / Between The Sheets
Used drive : HL-DT-STDVD-RAM GSA-H55N Adapter: 0 ID: 2
Read mode : Secure
Utilize accurate stream : Yes
Defeat audio cache : Yes
Make use of C2 pointers : No
Read offset correction : 102
Overread into Lead-In and Lead-Out : Yes
Fill up missing offset samples with silence : Yes
Delete leading and trailing silent blocks : No
Null samples used in CRC calculations : Yes
Used interface : Installed external ASPI interface
Gap handling : Appended to previous track
Used output format : User Defined Encoder
Selected bitrate : 128 kBit/s
Quality : High
Add ID3 tag : No
Command line compressor : G:\Program Files\Exact Audio Copy\Encoder\flac.exe
Additional command line options : -V -8 -T "Genre=%genre%" -T "Artist=%artist%" -T "Title=%title%" -T "Album=%albumtitle%" -T "Date=%year%" -T "Tracknumber=%tracknr%" -T "Comment=EAC1.0b2 FLAC -8" %source%
TOC of the extracted CD
Track | Start | Length | Start sector | End sector
---------------------------------------------------------
1 | 0:00.32 | 6:25.00 | 32 | 28906
2 | 6:25.32 | 6:12.50 | 28907 | 56856
3 | 12:38.07 | 6:46.00 | 56857 | 87306
4 | 19:24.07 | 5:16.25 | 87307 | 111031
5 | 24:40.32 | 6:08.18 | 111032 | 138649
6 | 30:48.50 | 6:31.05 | 138650 | 167979
7 | 37:19.55 | 6:49.60 | 167980 | 198714
8 | 44:09.40 | 5:48.40 | 198715 | 224854
9 | 49:58.05 | 5:34.42 | 224855 | 249946
10 | 55:32.47 | 5:40.15 | 249947 | 275461
11 | 61:12.62 | 6:28.70 | 275462 | 304631
Track 1
Filename F:\WAV\01 - Chant.wav
Pre-gap length 0:00:02.32
Peak level 93.7 %
Extraction speed 5.1 X
Track quality 100.0 %
Test CRC 8B7396C5
Copy CRC 8B7396C5
Accurately ripped (confidence 15) [C386652C] (AR v2)
Copy OK
Track 2
Filename F:\WAV\02 - Monterey.wav
Pre-gap length 0:00:00.71
Peak level 91.8 %
Extraction speed 5.8 X
Track quality 100.0 %
Test CRC 694CEE64
Copy CRC 694CEE64
Accurately ripped (confidence 15) [15232608] (AR v2)
Copy OK
Track 3
Filename F:\WAV\03 - Between The Sheets.wav
Pre-gap length 0:00:00.39
Peak level 90.1 %
Extraction speed 5.9 X
Track quality 99.9 %
Test CRC 3BBA5102
Copy CRC 3BBA5102
Accurately ripped (confidence 14) [B8AA1F66] (AR v2)
Copy OK
Track 4
Filename F:\WAV\04 - Li'l Darlin'.wav
Pre-gap length 0:00:01.06
Peak level 92.3 %
Extraction speed 6.7 X
Track quality 100.0 %
Test CRC 5E827FD8
Copy CRC 5E827FD8
Accurately ripped (confidence 15) [0A9D1F91] (AR v2)
Copy OK
Track 5
Filename F:\WAV\05 - Flying East.wav
Peak level 100.0 %
Extraction speed 7.3 X
Track quality 100.0 %
Test CRC 0B4867DD
Copy CRC 0B4867DD
Accurately ripped (confidence 15) [16EEA2C8] (AR v2)
Copy OK
Track 6
Filename F:\WAV\06 - Once In The A.M..wav
Pre-gap length 0:00:00.27
Peak level 97.3 %
Extraction speed 7.0 X
Track quality 99.9 %
Test CRC A411A944
Copy CRC A411A944
Accurately ripped (confidence 15) [D0D59E0F] (AR v2)
Copy OK
Track 7
Filename F:\WAV\07 - Gulliver.wav
Pre-gap length 0:00:00.42
Peak level 93.8 %
Extraction speed 8.1 X
Track quality 100.0 %
Test CRC 7FF5C8C2
Copy CRC 7FF5C8C2
Accurately ripped (confidence 15) [248F7C44] (AR v2)
Copy OK
Track 8
Filename F:\WAV\08 - Amoroso.wav
Pre-gap length 0:00:01.54
Peak level 100.0 %
Extraction speed 8.2 X
Track quality 100.0 %
Test CRC 77519EE2
Copy CRC 77519EE2
Accurately ripped (confidence 15) [7002010E] (AR v2)
Copy OK
Track 9
Filename F:\WAV\09 - A Summer Child.wav
Peak level 90.6 %
Extraction speed 8.4 X
Track quality 100.0 %
Test CRC 78825620
Copy CRC 78825620
Accurately ripped (confidence 15) [BB9941E4] (AR v2)
Copy OK
Track 10
Filename F:\WAV\10 - Anthem.wav
Pre-gap length 0:00:00.71
Peak level 91.6 %
Extraction speed 8.5 X
Track quality 100.0 %
Test CRC 64C84EC0
Copy CRC 64C84EC0
Accurately ripped (confidence 15) [53C80C04] (AR v2)
Copy OK
Track 11
Filename F:\WAV\11 - A Song For Somalia.wav
Pre-gap length 0:00:01.04
Peak level 89.1 %
Extraction speed 6.7 X
Track quality 100.0 %
Test CRC 0E8B6D57
Copy CRC 0E8B6D57
Accurately ripped (confidence 13) [0E5558D4] (AR v2)
Copy OK
All tracks accurately ripped
No errors occurred
End of status report
==== Log checksum D5CCABBB46A11F182702BA471F307DB57560B6F094669B0FFFE9F2E310ED1890 ====
Содержание индексной карты (.CUE)
REM GENRE Jazz
REM DATE 1993
REM DISCID 870FDD0B
REM COMMENT "ExactAudioCopy v1.0b2"
CATALOG 0075994534022
PERFORMER "Fourplay"
TITLE "Between The Sheets"
FILE "01 - Chant.wav" WAVE
TRACK 01 AUDIO
TITLE "Chant"
PERFORMER "Fourplay"
PREGAP 00:00:32
INDEX 01 00:00:00
TRACK 02 AUDIO
TITLE "Monterey"
PERFORMER "Fourplay"
INDEX 00 06:24:04
FILE "02 - Monterey.wav" WAVE
INDEX 01 00:00:00
TRACK 03 AUDIO
TITLE "Between The Sheets"
PERFORMER "Fourplay"
INDEX 00 06:12:11
FILE "03 - Between The Sheets.wav" WAVE
INDEX 01 00:00:00
TRACK 04 AUDIO
TITLE "Li'l Darlin'"
PERFORMER "Fourplay"
INDEX 00 06:44:69
FILE "04 - Li'l Darlin'.wav" WAVE
INDEX 01 00:00:00
FILE "05 - Flying East.wav" WAVE
TRACK 05 AUDIO
TITLE "Flying East"
PERFORMER "Fourplay"
INDEX 01 00:00:00
TRACK 06 AUDIO
TITLE "Once In The A.M."
PERFORMER "Fourplay"
INDEX 00 06:07:66
FILE "06 - Once In The A.M..wav" WAVE
INDEX 01 00:00:00
TRACK 07 AUDIO
TITLE "Gulliver"
PERFORMER "Fourplay"
INDEX 00 06:30:38
FILE "07 - Gulliver.wav" WAVE
INDEX 01 00:00:00
TRACK 08 AUDIO
TITLE "Amoroso"
PERFORMER "Fourplay"
INDEX 00 06:48:06
FILE "08 - Amoroso.wav" WAVE
INDEX 01 00:00:00
FILE "09 - A Summer Child.wav" WAVE
TRACK 09 AUDIO
TITLE "A Summer Child"
PERFORMER "Fourplay"
INDEX 01 00:00:00
TRACK 10 AUDIO
TITLE "Anthem"
PERFORMER "Fourplay"
INDEX 00 05:33:46
FILE "10 - Anthem.wav" WAVE
INDEX 01 00:00:00
TRACK 11 AUDIO
TITLE "A Song For Somalia"
PERFORMER "Fourplay"
INDEX 00 05:39:11
FILE "11 - A Song For Somalia.wav" WAVE
INDEX 01 00:00:00
Рип диска с ненулевыми данными в предзазоре первого трека, снятый с зазорами приклеплёнными в следующему треку
Лог создания рипа
Exact Audio Copy V1.0 beta 2 from 29. April 2011
EAC extraction logfile from 29. June 2011, 3:11
Genesis / Seconds Out [Live]
Used drive : HL-DT-STDVD-RAM GSA-H55N Adapter: 0 ID: 2
Read mode : Secure
Utilize accurate stream : Yes
Defeat audio cache : Yes
Make use of C2 pointers : No
Read offset correction : 102
Overread into Lead-In and Lead-Out : Yes
Fill up missing offset samples with silence : Yes
Delete leading and trailing silent blocks : No
Null samples used in CRC calculations : Yes
Used interface : Installed external ASPI interface
Gap handling : Appended to next track
Used output format : User Defined Encoder
Selected bitrate : 128 kBit/s
Quality : High
Add ID3 tag : No
Command line compressor : G:\Program Files\Exact Audio Copy\Encoder\flac.exe
Additional command line options : -V -8 -T "Genre=%genre%" -T "Artist=%artist%" -T "Title=%title%" -T "Album=%albumtitle%" -T "Date=%year%" -T "Tracknumber=%tracknr%" -T "Comment=EAC1.0b2 FLAC -8" %source%
TOC of the extracted CD
Track | Start | Length | Start sector | End sector
---------------------------------------------------------
1 | 0:00.33 | 6:40.20 | 33 | 30052
2 | 6:40.53 | 5:28.65 | 30053 | 54717
3 | 12:09.43 | 6:03.30 | 54718 | 81972
4 | 18:12.73 | 4:30.42 | 81973 | 102264
5 | 22:43.40 | 8:57.53 | 102265 | 142592
6 | 31:41.18 | 8:47.15 | 142593 | 182132
7 | 40:28.33 | 5:00.45 | 182133 | 204677
8 | 45:29.03 | 3:19.10 | 204678 | 219612
Track 1
Filename F:\WAV\01 - Squonk.wav
Pre-gap length 0:00:02.33
Peak level 100.0 %
Extraction speed 4.3 X
Track quality 99.9 %
Test CRC C4D766AB
Copy CRC C4D766AB
Accurately ripped (confidence 14) [78D3859B] (AR v1)
Copy OK
Track 2
Filename F:\WAV\02 - The Carpet Crawl.wav
Peak level 82.8 %
Extraction speed 5.2 X
Track quality 100.0 %
Test CRC AC10C63D
Copy CRC AC10C63D
Accurately ripped (confidence 14) [A4B302A4] (AR v1)
Copy OK
Track 3
Filename F:\WAV\03 - Robbery, Assault and Battery.wav
Peak level 100.0 %
Extraction speed 5.8 X
Track quality 100.0 %
Test CRC B4D61EC0
Copy CRC B4D61EC0
Accurately ripped (confidence 14) [AD37B974] (AR v1)
Copy OK
Track 4
Filename F:\WAV\04 - Afterglow.wav
Peak level 99.6 %
Extraction speed 5.4 X
Track quality 99.9 %
Test CRC A0D971DE
Copy CRC A0D971DE
Accurately ripped (confidence 14) [038D5D34] (AR v1)
Copy OK
Track 5
Filename F:\WAV\05 - Firth of Fifth.wav
Peak level 100.0 %
Extraction speed 7.0 X
Track quality 100.0 %
Test CRC 97B62EEA
Copy CRC 97B62EEA
Accurately ripped (confidence 14) [13E517A9] (AR v1)
Copy OK
Track 6
Filename F:\WAV\06 - I Know What I Like.wav
Peak level 94.0 %
Extraction speed 7.1 X
Track quality 99.9 %
Test CRC D3DF1AC6
Copy CRC D3DF1AC6
Accurately ripped (confidence 14) [D4730475] (AR v1)
Copy OK
Track 7
Filename F:\WAV\07 - The Lamb Lies Down on Broadway.wav
Peak level 97.6 %
Extraction speed 7.5 X
Track quality 100.0 %
Test CRC D22E38EC
Copy CRC D22E38EC
Accurately ripped (confidence 14) [FC4D6562] (AR v1)
Copy OK
Track 8
Filename F:\WAV\08 - The Musical Box (Closing Section).wav
Peak level 92.0 %
Extraction speed 4.5 X
Track quality 100.0 %
Test CRC EACCB45F
Copy CRC EACCB45F
Accurately ripped (confidence 13) [AC17D588] (AR v1)
Copy OK
All tracks accurately ripped
No errors occurred
End of status report
==== Log checksum 8F1A4F3D871608FC7A7BED0F9ABB704B3D11CDE7AAD47096C0293F58C4BA64E6 ====
Содержание индексной карты (.CUE)
REM GENRE "Progressive Rock"
REM DATE 1977
REM DISCID 530B7008
REM COMMENT "ExactAudioCopy v1.0b2"
PERFORMER "Genesis"
TITLE "Seconds Out [Live]"
FILE "01 - Squonk.wav" WAVE
TRACK 01 AUDIO
TITLE "Squonk"
PERFORMER "Genesis"
INDEX 00 00:00:00
INDEX 01 00:00:33
FILE "02 - The Carpet Crawl.wav" WAVE
TRACK 02 AUDIO
TITLE "The Carpet Crawl"
PERFORMER "Genesis"
INDEX 01 00:00:00
FILE "03 - Robbery, Assault and Battery.wav" WAVE
TRACK 03 AUDIO
TITLE "Robbery, Assault and Battery"
PERFORMER "Genesis"
INDEX 01 00:00:00
FILE "04 - Afterglow.wav" WAVE
TRACK 04 AUDIO
TITLE "Afterglow"
PERFORMER "Genesis"
INDEX 01 00:00:00
FILE "05 - Firth of Fifth.wav" WAVE
TRACK 05 AUDIO
TITLE "Firth of Fifth"
PERFORMER "Genesis"
INDEX 01 00:00:00
FILE "06 - I Know What I Like.wav" WAVE
TRACK 06 AUDIO
TITLE "I Know What I Like"
PERFORMER "Genesis"
INDEX 01 00:00:00
FILE "07 - The Lamb Lies Down on Broadway.wav" WAVE
TRACK 07 AUDIO
TITLE "The Lamb Lies Down on Broadway"
PERFORMER "Genesis"
INDEX 01 00:00:00
FILE "08 - The Musical Box (Closing Section).wav" WAVE
TRACK 08 AUDIO
TITLE "The Musical Box (Closing Section)"
PERFORMER "Genesis"
INDEX 01 00:00:00
Рип диска с ненулевыми данными в предзазоре первого трека, снятый с зазорами приклеплёнными в предыдущему треку (режим по-умолчанию)
Лог создания рипа
Exact Audio Copy V1.0 beta 2 from 29. April 2011
EAC extraction logfile from 29. June 2011, 2:33
Al Di Meola / The Collection
Used drive : HL-DT-STDVD-RAM GSA-H55N Adapter: 0 ID: 2
Read mode : Secure
Utilize accurate stream : Yes
Defeat audio cache : Yes
Make use of C2 pointers : No
Read offset correction : 102
Overread into Lead-In and Lead-Out : Yes
Fill up missing offset samples with silence : Yes
Delete leading and trailing silent blocks : No
Null samples used in CRC calculations : Yes
Used interface : Installed external ASPI interface
Gap handling : Appended to previous track
Used output format : User Defined Encoder
Selected bitrate : 128 kBit/s
Quality : High
Add ID3 tag : No
Command line compressor : G:\Program Files\Exact Audio Copy\Encoder\flac.exe
Additional command line options : -V -8 -T "Genre=%genre%" -T "Artist=%artist%" -T "Title=%title%" -T "Album=%albumtitle%" -T "Date=%year%" -T "Tracknumber=%tracknr%" -T "Comment=EAC1.0b2 FLAC -8" %source%
TOC of the extracted CD
Track | Start | Length | Start sector | End sector
---------------------------------------------------------
1 | 0:00.32 | 9:16.53 | 32 | 41784
2 | 9:17.10 | 9:56.45 | 41785 | 86529
3 | 19:13.55 | 5:16.17 | 86530 | 110246
4 | 24:29.72 | 6:18.30 | 110247 | 138626
5 | 30:48.27 | 5:27.18 | 138627 | 163169
6 | 36:15.45 | 7:25.55 | 163170 | 196599
7 | 43:41.25 | 4:18.42 | 196600 | 215991
8 | 47:59.67 | 3:57.43 | 215992 | 233809
9 | 51:57.35 | 7:02.07 | 233810 | 265466
10 | 58:59.42 | 6:34.25 | 265467 | 295041
11 | 65:33.67 | 5:55.70 | 295042 | 321736
12 | 71:29.62 | 3:44.60 | 321737 | 338596
Track 1
Filename F:\WAV\01 - Land of the Midnight Sun.wav
Pre-gap length 0:00:02.32
Peak level 66.1 %
Extraction speed 5.6 X
Track quality 100.0 %
Test CRC DAE0745A
Copy CRC DAE0745A
Accurately ripped (confidence 10) [39B588F7] (AR v1)
Copy OK
Track 2
Filename F:\WAV\02 - Suite Golden Dawn.wav
Pre-gap length 0:00:05.63
Peak level 85.6 %
Extraction speed 6.2 X
Track quality 99.9 %
Test CRC 24DAE7AF
Copy CRC 24DAE7AF
Accurately ripped (confidence 12) [A06EB5B2] (AR v1)
Copy OK
Track 3
Filename F:\WAV\03 - Mediterranean Sundance.wav
Pre-gap length 0:00:05.74
Peak level 72.5 %
Extraction speed 6.9 X
Track quality 100.0 %
Test CRC 6BD251E2
Copy CRC 6BD251E2
Accurately ripped (confidence 12) [28DA6339] (AR v1)
Copy OK
Track 4
Filename F:\WAV\04 - Race with the Devil on Spanish Highway.wav
Pre-gap length 0:00:04.27
Peak level 100.0 %
Extraction speed 7.4 X
Track quality 100.0 %
Test CRC 22C8A749
Copy CRC 22C8A749
Accurately ripped (confidence 12) [2ADA2166] (AR v1)
Copy OK
Track 5
Filename F:\WAV\05 - Dark Eye Tango.wav
Pre-gap length 0:00:02.22
Peak level 85.7 %
Extraction speed 7.5 X
Track quality 100.0 %
Test CRC 7CD3FF34
Copy CRC 7CD3FF34
Accurately ripped (confidence 13) [279B8EFA] (AR v1)
Copy OK
Track 6
Filename F:\WAV\06 - Senor Mouse.wav
Pre-gap length 0:00:03.58
Peak level 89.9 %
Extraction speed 8.1 X
Track quality 100.0 %
Test CRC 88641828
Copy CRC 88641828
Accurately ripped (confidence 12) [0503EE70] (AR v1)
Copy OK
Track 7
Filename F:\WAV\07 - Two to Tango.wav
Pre-gap length 0:00:04.73
Peak level 53.6 %
Extraction speed 7.9 X
Track quality 100.0 %
Test CRC 93B12B10
Copy CRC 93B12B10
Accurately ripped (confidence 13) [13D295E9] (AR v1)
Copy OK
Track 8
Filename F:\WAV\08 - God Bird Change.wav
Pre-gap length 0:00:04.65
Peak level 100.0 %
Extraction speed 7.9 X
Track quality 100.0 %
Test CRC 8A257518
Copy CRC 8A257518
Accurately ripped (confidence 11) [C4045DFF] (AR v1)
Copy OK
Track 9
Filename F:\WAV\09 - Electric Rendezvous.wav
Pre-gap length 0:00:03.13
Peak level 99.9 %
Extraction speed 8.7 X
Track quality 100.0 %
Test CRC D45A607B
Copy CRC D45A607B
Accurately ripped (confidence 12) [628FCD71] (AR v1)
Copy OK
Track 10
Filename F:\WAV\10 - Passion Grace & Fire.wav
Peak level 79.7 %
Extraction speed 8.8 X
Track quality 100.0 %
Test CRC 2A99218E
Copy CRC 2A99218E
Accurately ripped (confidence 10) [1B0B6544] (AR v1)
Copy OK
Track 11
Filename F:\WAV\11 - Egyptian Danza.wav
Pre-gap length 0:00:01.52
Peak level 79.6 %
Extraction speed 8.7 X
Track quality 100.0 %
Test CRC 6A7A5419
Copy CRC 6A7A5419
Accurately ripped (confidence 11) [0F650B4F] (AR v1)
Copy OK
Track 12
Filename F:\WAV\12 - Scoundrel.wav
Pre-gap length 0:00:01.60
Peak level 77.9 %
Extraction speed 5.9 X
Track quality 100.0 %
Test CRC CFB68403
Copy CRC CFB68403
Accurately ripped (confidence 10) [737F3BA6] (AR v1)
Copy OK
All tracks accurately ripped
No errors occurred
End of status report
==== Log checksum 5CADD9BA822A4CED08C7C540969C21C4DA3CC3D87670C797910AAFADA2A634E6 ====
Содержание отредактированной индексной карты (.CUE)
REM GENRE Fusion
REM DATE 1991
REM DISCID AC11A20C
REM COMMENT "ExactAudioCopy v0.99pb5"
PERFORMER "Al Di Meola"
TITLE "The Collection"
FILE "00 - Land of the Midnight Sun.wav" WAVE
TRACK 01 AUDIO
TITLE "Land of the Midnight Sun"
PERFORMER "Al Di Meola"
INDEX 00 00:00:00
FILE "01 - Land of the Midnight Sun.wav" WAVE
INDEX 01 00:00:00
TRACK 02 AUDIO
TITLE "Suite Golden Dawn"
PERFORMER "Al Di Meola"
INDEX 00 09:10:65
FILE "02 - Suite Golden Dawn.wav" WAVE
INDEX 01 00:00:00
TRACK 03 AUDIO
TITLE "Mediterranean Sundance"
PERFORMER "Al Di Meola"
INDEX 00 09:50:46
FILE "03 - Mediterranean Sundance.wav" WAVE
INDEX 01 00:00:00
TRACK 04 AUDIO
TITLE "Race with the Devil on Spanish Highway"
PERFORMER "Al Di Meola"
INDEX 00 05:11:65
FILE "04 - Race with the Devil on Spanish Highway.wav" WAVE
INDEX 01 00:00:00
TRACK 05 AUDIO
TITLE "Dark Eye Tango"
PERFORMER "Al Di Meola"
INDEX 00 06:16:08
FILE "05 - Dark Eye Tango.wav" WAVE
INDEX 01 00:00:00
TRACK 06 AUDIO
TITLE "Senor Mouse"
PERFORMER "Al Di Meola"
INDEX 00 05:23:35
FILE "06 - Senor Mouse.wav" WAVE
INDEX 01 00:00:00
TRACK 07 AUDIO
TITLE "Two to Tango"
PERFORMER "Al Di Meola"
INDEX 00 07:20:57
FILE "07 - Two to Tango.wav" WAVE
INDEX 01 00:00:00
TRACK 08 AUDIO
TITLE "God Bird Change"
PERFORMER "Al Di Meola"
INDEX 00 04:13:52
FILE "08 - God Bird Change.wav" WAVE
INDEX 01 00:00:00
TRACK 09 AUDIO
TITLE "Electric Rendezvous"
PERFORMER "Al Di Meola"
INDEX 00 03:54:30
FILE "09 - Electric Rendezvous.wav" WAVE
INDEX 01 00:00:00
FILE "10 - Passion Grace & Fire.wav" WAVE
TRACK 10 AUDIO
TITLE "Passion Grace & Fire"
PERFORMER "Al Di Meola"
INDEX 01 00:00:00
TRACK 11 AUDIO
TITLE "Egyptian Danza"
PERFORMER "Al Di Meola"
INDEX 00 06:32:48
FILE "11 - Egyptian Danza.wav" WAVE
INDEX 01 00:00:00
TRACK 12 AUDIO
TITLE "Scoundrel"
PERFORMER "Al Di Meola"
INDEX 00 05:54:10
FILE "12 - Scoundrel.wav" WAVE
INDEX 01 00:00:00
Сгенерированная ЕАС индексная карта (.CUE)
REM GENRE Fusion
REM DATE 1991
REM DISCID AC11A20C
REM COMMENT "ExactAudioCopy v0.99pb5"
PERFORMER "Al Di Meola"
TITLE "The Collection"
FILE "01 - Land of the Midnight Sun.wav" WAVE
TRACK 01 AUDIO
TITLE "Land of the Midnight Sun"
PERFORMER "Al Di Meola"
PREGAP 00:00:32
INDEX 01 00:00:00
TRACK 02 AUDIO
TITLE "Suite Golden Dawn"
PERFORMER "Al Di Meola"
INDEX 00 09:10:65
FILE "02 - Suite Golden Dawn.wav" WAVE
INDEX 01 00:00:00
TRACK 03 AUDIO
TITLE "Mediterranean Sundance"
PERFORMER "Al Di Meola"
INDEX 00 09:50:46
FILE "03 - Mediterranean Sundance.wav" WAVE
INDEX 01 00:00:00
TRACK 04 AUDIO
TITLE "Race with the Devil on Spanish Highway"
PERFORMER "Al Di Meola"
INDEX 00 05:11:65
FILE "04 - Race with the Devil on Spanish Highway.wav" WAVE
INDEX 01 00:00:00
TRACK 05 AUDIO
TITLE "Dark Eye Tango"
PERFORMER "Al Di Meola"
INDEX 00 06:16:08
FILE "05 - Dark Eye Tango.wav" WAVE
INDEX 01 00:00:00
TRACK 06 AUDIO
TITLE "Senor Mouse"
PERFORMER "Al Di Meola"
INDEX 00 05:23:35
FILE "06 - Senor Mouse.wav" WAVE
INDEX 01 00:00:00
TRACK 07 AUDIO
TITLE "Two to Tango"
PERFORMER "Al Di Meola"
INDEX 00 07:20:57
FILE "07 - Two to Tango.wav" WAVE
INDEX 01 00:00:00
TRACK 08 AUDIO
TITLE "God Bird Change"
PERFORMER "Al Di Meola"
INDEX 00 04:13:52
FILE "08 - God Bird Change.wav" WAVE
INDEX 01 00:00:00
TRACK 09 AUDIO
TITLE "Electric Rendezvous"
PERFORMER "Al Di Meola"
INDEX 00 03:54:30
FILE "09 - Electric Rendezvous.wav" WAVE
INDEX 01 00:00:00
FILE "10 - Passion Grace & Fire.wav" WAVE
TRACK 10 AUDIO
TITLE "Passion Grace & Fire"
PERFORMER "Al Di Meola"
INDEX 01 00:00:00
TRACK 11 AUDIO
TITLE "Egyptian Danza"
PERFORMER "Al Di Meola"
INDEX 00 06:32:48
FILE "11 - Egyptian Danza.wav" WAVE
INDEX 01 00:00:00
TRACK 12 AUDIO
TITLE "Scoundrel"
PERFORMER "Al Di Meola"
INDEX 00 05:54:10
FILE "12 - Scoundrel.wav" WAVE
INDEX 01 00:00:00
Рип диска со скрытым в предзазоре музыкальным треком
Лог создания рипа
Exact Audio Copy V1.0 beta 2 from 29. April 2011
EAC extraction logfile from 29. June 2011, 0:02
Bela Fleck & The Flecktones / Little Worlds
Used drive : HL-DT-STDVD-RAM GSA-H55N Adapter: 0 ID: 2
Read mode : Secure
Utilize accurate stream : Yes
Defeat audio cache : Yes
Make use of C2 pointers : No
Read offset correction : 102
Overread into Lead-In and Lead-Out : Yes
Fill up missing offset samples with silence : Yes
Delete leading and trailing silent blocks : No
Null samples used in CRC calculations : Yes
Used interface : Installed external ASPI interface
Gap handling : Appended to previous track
Used output format : User Defined Encoder
Selected bitrate : 128 kBit/s
Quality : High
Add ID3 tag : No
Command line compressor : G:\Program Files\Exact Audio Copy\Encoder\flac.exe
Additional command line options : -V -8 -T "Genre=%genre%" -T "Artist=%artist%" -T "Title=%title%" -T "Album=%albumtitle%" -T "Date=%year%" -T "Tracknumber=%tracknr%" -T "Comment=EAC1.0b2 FLAC -8" %source%
TOC of the extracted CD
Track | Start | Length | Start sector | End sector
---------------------------------------------------------
1 | 3:36.20 | 8:42.17 | 16220 | 55386
2 | 12:18.37 | 4:06.38 | 55387 | 73874
3 | 16:25.00 | 6:45.03 | 73875 | 104252
4 | 23:10.03 | 6:58.68 | 104253 | 135670
5 | 30:08.71 | 3:04.00 | 135671 | 149470
6 | 33:12.71 | 5:04.23 | 149471 | 172293
7 | 38:17.19 | 2:05.26 | 172294 | 181694
8 | 40:22.45 | 4:54.02 | 181695 | 203746
9 | 45:16.47 | 9:49.17 | 203747 | 247938
10 | 55:05.64 | 0:48.40 | 247939 | 251578
Track 1
Filename F:\WAV\01 - Bil Mon.wav
Pre-gap length 0:03:38.20
Peak level 100.0 %
Extraction speed 4.3 X
Track quality 99.9 %
Test CRC 308E32EF
Copy CRC 308E32EF
Accurately ripped (confidence 2) [F2E29558] (AR v1)
Copy OK
Track 2
Filename F:\WAV\02 - The Ballad Of Jed Clampett.wav
Peak level 100.0 %
Extraction speed 4.7 X
Track quality 100.0 %
Test CRC 9D1D8FF9
Copy CRC 9D1D8FF9
Accurately ripped (confidence 2) [A9F9BE9D] (AR v1)
Copy OK
Track 3
Filename F:\WAV\03 - Puffy.wav
Pre-gap length 0:00:00.03
Peak level 100.0 %
Extraction speed 4.9 X
Track quality 99.9 %
Test CRC 972D595C
Copy CRC 972D595C
Accurately ripped (confidence 2) [BC43C98C] (AR v1)
Copy OK
Track 4
Filename F:\WAV\04 - New Math.wav
Peak level 100.0 %
Extraction speed 5.7 X
Track quality 100.0 %
Test CRC 736ABF41
Copy CRC 736ABF41
Accurately ripped (confidence 2) [5B999C87] (AR v1)
Copy OK
Track 5
Filename F:\WAV\05 - Longitude.wav
Peak level 47.5 %
Extraction speed 5.5 X
Track quality 100.0 %
Test CRC 70149EC9
Copy CRC 70149EC9
Accurately ripped (confidence 2) [145B6E83] (AR v1)
Copy OK
Track 6
Filename F:\WAV\06 - Latitude.wav
Peak level 97.5 %
Extraction speed 6.1 X
Track quality 100.0 %
Test CRC 147AC5DE
Copy CRC 147AC5DE
Accurately ripped (confidence 2) [5BF4EBBD] (AR v1)
Copy OK
Track 7
Filename F:\WAV\07 - Centrifuge.wav
Peak level 89.2 %
Extraction speed 5.4 X
Track quality 100.0 %
Test CRC 10AE08C9
Copy CRC 10AE08C9
Accurately ripped (confidence 2) [2DC03956] (AR v1)
Copy OK
Track 8
Filename F:\WAV\08 - Off The Top (The Gravity Wheel).wav
Peak level 100.0 %
Extraction speed 6.3 X
Track quality 100.0 %
Test CRC 561FA09A
Copy CRC 561FA09A
Accurately ripped (confidence 2) [7D937158] (AR v1)
Copy OK
Track 9
Filename F:\WAV\09 - Off The Top (Line Dance).wav
Peak level 96.6 %
Extraction speed 7.1 X
Track quality 100.0 %
Test CRC 95BE6BD2
Copy CRC 95BE6BD2
Accurately ripped (confidence 2) [43E6B5CA] (AR v1)
Copy OK
Track 10
Filename F:\WAV\10 - Follow The Line.wav
Pre-gap length 0:04:55.28
Peak level 49.2 %
Extraction speed 4.7 X
Track quality 100.0 %
Test CRC 4F4AEEF7
Copy CRC 4F4AEEF7
Accurately ripped (confidence 2) [ECD53D7B] (AR v1)
Copy OK
All tracks accurately ripped
No errors occurred
End of status report
==== Log checksum E4FCF423CF5969FC6ACA34FDA0D5153A46CD08E4CDC1621BE094AF22C57857A6 ====
Лог снятия предзазора
Exact Audio Copy V1.0 beta 2 from 29. April 2011
EAC extraction logfile from 29. June 2011, 1:39
Bela Fleck & The Flecktones / Little Worlds
Used drive : HL-DT-STDVD-RAM GSA-H55N Adapter: 0 ID: 2
Read mode : Secure
Utilize accurate stream : Yes
Defeat audio cache : Yes
Make use of C2 pointers : No
Read offset correction : 102
Overread into Lead-In and Lead-Out : Yes
Fill up missing offset samples with silence : Yes
Delete leading and trailing silent blocks : No
Null samples used in CRC calculations : Yes
Used interface : Installed external ASPI interface
Used output format : Internal WAV Routines
Sample format : 44.100 Hz; 16 Bit; Stereo
TOC of the extracted CD
Track | Start | Length | Start sector | End sector
---------------------------------------------------------
1 | 3:36.20 | 8:42.17 | 16220 | 55386
2 | 12:18.37 | 4:06.38 | 55387 | 73874
3 | 16:25.00 | 6:45.03 | 73875 | 104252
4 | 23:10.03 | 6:58.68 | 104253 | 135670
5 | 30:08.71 | 3:04.00 | 135671 | 149470
6 | 33:12.71 | 5:04.23 | 149471 | 172293
7 | 38:17.19 | 2:05.26 | 172294 | 181694
8 | 40:22.45 | 4:54.02 | 181695 | 203746
9 | 45:16.47 | 9:49.17 | 203747 | 247938
10 | 55:05.64 | 0:48.40 | 247939 | 251578
Range status and errors
Selected range (Sectors 0-16219)
Filename F:\WAV\Radio-Flash.wav
Peak level 97.3 %
Extraction speed 1.7 X
Range quality 100.0 %
Copy CRC D6E7A65F
Copy OK
No errors occurred
AccurateRip summary
No tracks could be verified as accurate
End of status report
==== Log checksum 92DA077F2D1E36FC0D7ECA66C41FB736B3C53F86DB37FEBD8DA30E654E851230 ====
------------------------------------------------------------
Exact Audio Copy V1.0 beta 2 from 29. April 2011
EAC extraction logfile from 29. June 2011, 1:45
Bela Fleck & The Flecktones / Little Worlds
Used drive : HL-DT-STDVD-RAM GSA-H55N Adapter: 0 ID: 2
Read mode : Secure
Utilize accurate stream : Yes
Defeat audio cache : Yes
Make use of C2 pointers : No
Read offset correction : 102
Overread into Lead-In and Lead-Out : Yes
Fill up missing offset samples with silence : Yes
Delete leading and trailing silent blocks : No
Null samples used in CRC calculations : Yes
Used interface : Installed external ASPI interface
Used output format : User Defined Encoder
Selected bitrate : 128 kBit/s
Quality : High
Add ID3 tag : No
Command line compressor : G:\Program Files\Exact Audio Copy\Encoder\flac.exe
Additional command line options : -V -8 -T "Genre=%genre%" -T "Artist=%artist%" -T "Title=%title%" -T "Album=%albumtitle%" -T "Date=%year%" -T "Tracknumber=%tracknr%" -T "Comment=EAC1.0b2 FLAC -8" %source%
TOC of the extracted CD
Track | Start | Length | Start sector | End sector
---------------------------------------------------------
1 | 3:36.20 | 8:42.17 | 16220 | 55386
2 | 12:18.37 | 4:06.38 | 55387 | 73874
3 | 16:25.00 | 6:45.03 | 73875 | 104252
4 | 23:10.03 | 6:58.68 | 104253 | 135670
5 | 30:08.71 | 3:04.00 | 135671 | 149470
6 | 33:12.71 | 5:04.23 | 149471 | 172293
7 | 38:17.19 | 2:05.26 | 172294 | 181694
8 | 40:22.45 | 4:54.02 | 181695 | 203746
9 | 45:16.47 | 9:49.17 | 203747 | 247938
10 | 55:05.64 | 0:48.40 | 247939 | 251578
Range status and errors
Selected range (Sectors 0-16219)
Filename F:\WAV\Radio-Flash.wav
Peak level 97.3 %
Extraction speed 1.8 X
Range quality 100.0 %
Copy CRC D6E7A65F
Copy OK
No errors occurred
AccurateRip summary
No tracks could be verified as accurate
End of status report
==== Log checksum B190DBFCDE8B7374493888D5495CEA159A0385D5AB77563C04A1A9FA1D0F0C95 ====
Содержание отредактированной индексной карты (.CUE)
REM GENRE Jazz
REM DATE 2003
REM DISCID 9F0C420A
REM COMMENT "ExactAudioCopy v1.0b2"
PERFORMER "Bela Fleck & The Flecktones"
TITLE "Little Worlds"
FILE "00 - Radio-Flash.wav" WAVE
TRACK 01 AUDIO
TITLE "Bil Mon"
PERFORMER "Bela Fleck & The Flecktones"
INDEX 00 00:00:00
FILE "01 - Bil Mon.wav" WAVE
INDEX 01 00:00:00
FILE "02 - The Ballad Of Jed Clampett.wav" WAVE
TRACK 02 AUDIO
TITLE "The Ballad Of Jed Clampett"
PERFORMER "Bela Fleck & The Flecktones"
INDEX 01 00:00:00
TRACK 03 AUDIO
TITLE "Puffy"
PERFORMER "Bela Fleck & The Flecktones"
INDEX 00 04:06:35
FILE "03 - Puffy.wav" WAVE
INDEX 01 00:00:00
FILE "04 - New Math.wav" WAVE
TRACK 04 AUDIO
TITLE "New Math"
PERFORMER "Bela Fleck & The Flecktones"
INDEX 01 00:00:00
FILE "05 - Longitude.wav" WAVE
TRACK 05 AUDIO
TITLE "Longitude"
PERFORMER "Bela Fleck & The Flecktones"
INDEX 01 00:00:00
FILE "06 - Latitude.wav" WAVE
TRACK 06 AUDIO
TITLE "Latitude"
PERFORMER "Bela Fleck & The Flecktones"
INDEX 01 00:00:00
FILE "07 - Centrifuge.wav" WAVE
TRACK 07 AUDIO
TITLE "Centrifuge"
PERFORMER "Bela Fleck & The Flecktones"
INDEX 01 00:00:00
FILE "08 - Off The Top (The Gravity Wheel).wav" WAVE
TRACK 08 AUDIO
TITLE "Off The Top (The Gravity Wheel)"
PERFORMER "Bela Fleck & The Flecktones"
INDEX 01 00:00:00
FILE "09 - Off The Top (Line Dance).wav" WAVE
TRACK 09 AUDIO
TITLE "Off The Top (Line Dance)"
PERFORMER "Bela Fleck & The Flecktones"
INDEX 01 00:00:00
TRACK 10 AUDIO
TITLE "Follow The Line"
PERFORMER "Bela Fleck & The Flecktones"
INDEX 00 04:53:64
FILE "10 - Follow The Line.wav" WAVE
INDEX 01 00:00:00
Сгенерированная ЕАС индексная карта (.CUE)
REM GENRE Jazz
REM DATE 2003
REM DISCID 9F0C420A
REM COMMENT "ExactAudioCopy v1.0b2"
PERFORMER "Bela Fleck & The Flecktones"
TITLE "Little Worlds"
FILE "01 - Bil Mon.wav" WAVE
TRACK 01 AUDIO
TITLE "Bil Mon"
PERFORMER "Bela Fleck & The Flecktones"
PREGAP 03:36:20
INDEX 01 00:00:00
FILE "02 - The Ballad Of Jed Clampett.wav" WAVE
TRACK 02 AUDIO
TITLE "The Ballad Of Jed Clampett"
PERFORMER "Bela Fleck & The Flecktones"
INDEX 01 00:00:00
TRACK 03 AUDIO
TITLE "Puffy"
PERFORMER "Bela Fleck & The Flecktones"
INDEX 00 04:06:35
FILE "03 - Puffy.wav" WAVE
INDEX 01 00:00:00
FILE "04 - New Math.wav" WAVE
TRACK 04 AUDIO
TITLE "New Math"
PERFORMER "Bela Fleck & The Flecktones"
INDEX 01 00:00:00
FILE "05 - Longitude.wav" WAVE
TRACK 05 AUDIO
TITLE "Longitude"
PERFORMER "Bela Fleck & The Flecktones"
INDEX 01 00:00:00
FILE "06 - Latitude.wav" WAVE
TRACK 06 AUDIO
TITLE "Latitude"
PERFORMER "Bela Fleck & The Flecktones"
INDEX 01 00:00:00
FILE "07 - Centrifuge.wav" WAVE
TRACK 07 AUDIO
TITLE "Centrifuge"
PERFORMER "Bela Fleck & The Flecktones"
INDEX 01 00:00:00
FILE "08 - Off The Top (The Gravity Wheel).wav" WAVE
TRACK 08 AUDIO
TITLE "Off The Top (The Gravity Wheel)"
PERFORMER "Bela Fleck & The Flecktones"
INDEX 01 00:00:00
FILE "09 - Off The Top (Line Dance).wav" WAVE
TRACK 09 AUDIO
TITLE "Off The Top (Line Dance)"
PERFORMER "Bela Fleck & The Flecktones"
INDEX 01 00:00:00
TRACK 10 AUDIO
TITLE "Follow The Line"
PERFORMER "Bela Fleck & The Flecktones"
INDEX 00 04:53:64
FILE "10 - Follow The Line.wav" WAVE
INDEX 01 00:00:00

Дополнения
Особенности снятия потрековых рипов с экстра-CD (Enhanced CD, CD-Extra)
Enhanced CD (Enhanced Compact-Disc — Расширенный компакт-диск) он же CD-Extra (Compact-Disc Extra — Экстра-компакт-диск) - мультисессионные компакт-диски, позволяющие хранить на одном диске одновременно звуковые дорожки и дорожки с мультимедийными данными, которые прилагаются в качестве бонуса к музыкальной программе.
Встечаются трёх видов:
1. С мультимедийными данными, записанными в предзазор первого трека. Выпускались до середины 90-х годов.
2. С мультимедийным треком (треками, может быть несколько), он же дата-трек, находящимся, согласно ТОС, в конце или в начале диска.
Аудио данные с такого CD снимаются аналогично обычному CD, по методике описанной в основной инструкции. Мультимедийные данные, если Вы хотите добавить их в раздачу (рекомендуется) копируются в отдельную подпапку "Extra" с помощью проводника Windows.
Для экстра-CD первого типа ничего более делать не нужно.
Для экстра-CD второго типа нужно отредактировать информацию в CUE-файле для того, чтобы этот файл стал рабочим и с его помощью можно было записать CD.
а) Дата-трек находится в последнем треке CD.
Удаляем из текста CUE всю информацию о дата-треке.
Оригинальный CUE
REM GENRE Jazz
REM DATE 2002
REM DISCID 7F0FCD0A
REM COMMENT "ExactAudioCopy v1.0b2"
CATALOG 0093624827825
PERFORMER "Christian McBride"
TITLE "Vertical Vision"
FILE "01 - Circa 1990.wav" WAVE
TRACK 01 AUDIO
TITLE "Circa 1990"
PERFORMER "Christian McBride"
ISRC USWB10203282
INDEX 01 00:00:00
FILE "02 - Technicolor Nightmare.wav" WAVE
TRACK 02 AUDIO
TITLE "Technicolor Nightmare"
PERFORMER "Christian McBride"
ISRC USWB10203221
INDEX 01 00:00:00
TRACK 03 AUDIO
TITLE "Tahitian Pearl"
PERFORMER "Christian McBride"
ISRC USWB10203283
INDEX 00 08:26:33
FILE "03 - Tahitian Pearl.wav" WAVE
INDEX 01 00:00:00
TRACK 04 AUDIO
TITLE "The Wizard Of Montara"
PERFORMER "Christian McBride"
ISRC USWB10203284
INDEX 00 06:26:68
FILE "04 - The Wizard Of Montara.wav" WAVE
INDEX 01 00:00:00
FILE "05 - The Ballad Of Little Girl Dancer.wav" WAVE
TRACK 05 AUDIO
TITLE "The Ballad Of Little Girl Dancer"
PERFORMER "Christian McBride"
ISRC USWB10203285
INDEX 01 00:00:00
TRACK 06 AUDIO
TITLE "Lejos De Usted"
PERFORMER "Christian McBride"
ISRC USWB10203286
INDEX 00 05:39:07
FILE "06 - Lejos De Usted.wav" WAVE
INDEX 01 00:00:00
TRACK 07 AUDIO
TITLE "Precious One"
PERFORMER "Christian McBride"
ISRC USWB10203287
INDEX 00 04:52:68
FILE "07 - Precious One.wav" WAVE
INDEX 01 00:00:00
TRACK 08 AUDIO
TITLE "Song For Maya"
PERFORMER "Christian McBride"
ISRC USWB10203288
INDEX 00 05:54:32
FILE "08 - Song For Maya.wav" WAVE
INDEX 01 00:00:00
TRACK 09 AUDIO
TITLE "Boogie Woogie Waltz"
PERFORMER "Christian McBride"
ISRC USWB10203289
INDEX 00 04:08:58
FILE "09 - Boogie Woogie Waltz.wav" WAVE
INDEX 01 00:00:00
TRACK 10 MODEx/2xxx
TITLE "enhanced CD"
PERFORMER "Christian McBride"
INDEX 00 09:10:60
Удаляемый текст выделен красным цветом.
Отредактированный (рабочий) CUE
REM GENRE Jazz
REM DATE 2002
REM DISCID 7F0FCD0A
REM COMMENT "ExactAudioCopy v1.0b2"
CATALOG 0093624827825
PERFORMER "Christian McBride"
TITLE "Vertical Vision"
FILE "01 - Circa 1990.wav" WAVE
TRACK 01 AUDIO
TITLE "Circa 1990"
PERFORMER "Christian McBride"
ISRC USWB10203282
INDEX 01 00:00:00
FILE "02 - Technicolor Nightmare.wav" WAVE
TRACK 02 AUDIO
TITLE "Technicolor Nightmare"
PERFORMER "Christian McBride"
ISRC USWB10203221
INDEX 01 00:00:00
TRACK 03 AUDIO
TITLE "Tahitian Pearl"
PERFORMER "Christian McBride"
ISRC USWB10203283
INDEX 00 08:26:33
FILE "03 - Tahitian Pearl.wav" WAVE
INDEX 01 00:00:00
TRACK 04 AUDIO
TITLE "The Wizard Of Montara"
PERFORMER "Christian McBride"
ISRC USWB10203284
INDEX 00 06:26:68
FILE "04 - The Wizard Of Montara.wav" WAVE
INDEX 01 00:00:00
FILE "05 - The Ballad Of Little Girl Dancer.wav" WAVE
TRACK 05 AUDIO
TITLE "The Ballad Of Little Girl Dancer"
PERFORMER "Christian McBride"
ISRC USWB10203285
INDEX 01 00:00:00
TRACK 06 AUDIO
TITLE "Lejos De Usted"
PERFORMER "Christian McBride"
ISRC USWB10203286
INDEX 00 05:39:07
FILE "06 - Lejos De Usted.wav" WAVE
INDEX 01 00:00:00
TRACK 07 AUDIO
TITLE "Precious One"
PERFORMER "Christian McBride"
ISRC USWB10203287
INDEX 00 04:52:68
FILE "07 - Precious One.wav" WAVE
INDEX 01 00:00:00
TRACK 08 AUDIO
TITLE "Song For Maya"
PERFORMER "Christian McBride"
ISRC USWB10203288
INDEX 00 05:54:32
FILE "08 - Song For Maya.wav" WAVE
INDEX 01 00:00:00
TRACK 09 AUDIO
TITLE "Boogie Woogie Waltz"
PERFORMER "Christian McBride"
ISRC USWB10203289
INDEX 00 04:08:58
FILE "09 - Boogie Woogie Waltz.wav" WAVE
INDEX 01 00:00:00
б) Дата-трек находится в первом треке CD.
Удаляем из текста CUE всю информацию о дата-треке и изменяем (сдвигаем) нумерацию треков, чтобы она начиналась с первого трека.
Оригинальный CUE
REM GENRE Fusion
REM DATE 1994
REM DISCID 9C0F4C0B
REM COMMENT "ExactAudioCopy v1.0b2"
PERFORMER "Jason Miles"
TITLE "World Tour"
FILE "<Filename>.iso" BINARY
TRACK 01 MODEx/2xxx
TITLE "Daten_intro"
PERFORMER "Jason Miles"
INDEX 01 00:00:00

FILE "02 - A Guy Named Joe.wav" WAVE
TRACK 02 AUDIO
TITLE "A Guy Named Joe"
PERFORMER "Jason Miles"
INDEX 01 00:00:00
TRACK 03 AUDIO
TITLE "Honey Girl"
PERFORMER "Jason Miles"
INDEX 00 05:15:07
FILE "03 - Honey Girl.wav" WAVE
INDEX 01 00:00:00
TRACK 04 AUDIO
TITLE "Ginza"
PERFORMER "Jason Miles"
INDEX 00 05:24:04
FILE "04 - Ginza.wav" WAVE
INDEX 01 00:00:00
TRACK 05 AUDIO
TITLE "The Hang"
PERFORMER "Jason Miles"
INDEX 00 05:05:47
FILE "05 - The Hang.wav" WAVE
INDEX 01 00:00:00
TRACK 06 AUDIO
TITLE "Houses in the Amazon"
PERFORMER "Jason Miles"
INDEX 00 05:16:36
FILE "06 - Houses in the Amazon.wav" WAVE
INDEX 01 00:00:00
TRACK 07 AUDIO
TITLE "On The Coast"
PERFORMER "Jason Miles"
INDEX 00 05:54:34
FILE "07 - On The Coast.wav" WAVE
INDEX 01 00:00:00
FILE "08 - The Heat.wav" WAVE
TRACK 08 AUDIO
TITLE "The Heat"
PERFORMER "Jason Miles"
INDEX 01 00:00:00
FILE "09 - Vice.wav" WAVE
TRACK 09 AUDIO
TITLE "Vice"
PERFORMER "Jason Miles"
INDEX 01 00:00:00
TRACK 10 AUDIO
TITLE "Miles To Miles"
PERFORMER "Jason Miles"
INDEX 00 04:42:23
FILE "10 - Miles To Miles.wav" WAVE
INDEX 01 00:00:00
FILE "11 - Zombie Samba.wav" WAVE
TRACK 11 AUDIO
TITLE "Zombie Samba"
PERFORMER "Jason Miles"
INDEX 01 00:00:00
Удаляемый текст выделен красным цветом, изменяемый - синим.
Отредактированный (рабочий) CUE
REM GENRE Fusion
REM DATE 1994
REM DISCID 9C0F4C0B
REM COMMENT "ExactAudioCopy v1.0b2"
PERFORMER "Jason Miles"
TITLE "World Tour"
FILE "02 - A Guy Named Joe.wav" WAVE
TRACK 01 AUDIO
TITLE "A Guy Named Joe"
PERFORMER "Jason Miles"
INDEX 01 00:00:00
TRACK 02 AUDIO
TITLE "Honey Girl"
PERFORMER "Jason Miles"
INDEX 00 05:15:07
FILE "03 - Honey Girl.wav" WAVE
INDEX 01 00:00:00
TRACK 03 AUDIO
TITLE "Ginza"
PERFORMER "Jason Miles"
INDEX 00 05:24:04
FILE "04 - Ginza.wav" WAVE
INDEX 01 00:00:00
TRACK 04 AUDIO
TITLE "The Hang"
PERFORMER "Jason Miles"
INDEX 00 05:05:47
FILE "05 - The Hang.wav" WAVE
INDEX 01 00:00:00
TRACK 05 AUDIO
TITLE "Houses in the Amazon"
PERFORMER "Jason Miles"
INDEX 00 05:16:36
FILE "06 - Houses in the Amazon.wav" WAVE
INDEX 01 00:00:00
TRACK 06 AUDIO
TITLE "On The Coast"
PERFORMER "Jason Miles"
INDEX 00 05:54:34
FILE "07 - On The Coast.wav" WAVE
INDEX 01 00:00:00
FILE "08 - The Heat.wav" WAVE
TRACK 07 AUDIO
TITLE "The Heat"
PERFORMER "Jason Miles"
INDEX 01 00:00:00
FILE "09 - Vice.wav" WAVE
TRACK 08 AUDIO
TITLE "Vice"
PERFORMER "Jason Miles"
INDEX 01 00:00:00
TRACK 09 AUDIO
TITLE "Miles To Miles"
PERFORMER "Jason Miles"
INDEX 00 04:42:23
FILE "10 - Miles To Miles.wav" WAVE
INDEX 01 00:00:00
FILE "11 - Zombie Samba.wav" WAVE
TRACK 10 AUDIO
TITLE "Zombie Samba"
PERFORMER "Jason Miles"
INDEX 01 00:00:00
Изменённый текст выделен зелёным цветом.
В раздачу добавляются оба CUE-файла - оригинальный и изменённый (рабочий).
Пример раздачи экстра-CD.
Снятие потрекового рипа многодискового издания со сквозной (продолжающейся) нумерацией треков
1. Вставьте первый диск многодискового издания в привод.
2. Проследите. В поле "Название CD" должно быть вписано название альбома без указания номера диска. Это касается и всех последующих дисков издания.
3. На правой панели главного окна ЕАС укажите количество дисков в издании.

4. Определите и протестируйте зазоры, сгенерируйте CUE-файл и снимите рип согласно описанной в статье методике.
5. Добавьте к имени файла .cue номер диска в издании (например, "Название_альбома(CD1).cue").
6. Добавьте к имени файла .m3u номер диска в издании (например, "Исполнитель - Название_альбома(CD1).m3u").
7. Вставьте в привод следующий диск издания.
8. На правой панели главного окна ЕАС введите номер диска в издании и нажмите кнопку "Продолжить с последнего трека".

При этом нумерация треков изменится

и соответственно изменится номер первого трека на правой панели главного окна ЕАС

9. Определите и протестируйте зазоры, сгенерируйте файл CUE и снимите рип согласно описанной в статье методике.
10. Добавьте к имени файла .cue номер диска в издании (например, "Название_альбома(CDХ).cue", где Х - номер текущего диска).
11. Добавьте к имени файла .m3u номер диска в издании (например, "Исполнитель - Название_альбома(CDХ).m3u", где Х - номер текущего диска).
12. Повторите пункты 7-11 до последнего диска в издании.
13. Соберите информацию из всех файлов .m3u в один файл согласно нумерации треков и назовите файл, например, "Исполнитель - Название_альбома.m3u".
14. Удалите файлы .m3u отдельных дисков.
Создание потрекового рипа многодискового издания завершено.
Примечание! При снятии рипа многодискового издания в тэгах контейнеров рекомендуется прописать информацию об общем количестве дисков в издании и номере текущего диска. Для этого добавляются дополнительные параметры в строку кодировщика.
Расширенные строки кодировщиков
FLAC: -V -8 -T "Genre=%genre%" -T "Artist=%artist%" -T "Title=%title%" -T "Album=%albumtitle%" -T "Totaldiscs=%totalcds%" -T "Discnumber=%cdnumber%" -T "Date=%year%" -T "Tracknumber=%tracknr%" -T "Comment=%comment%" %source%
WavPack: -hm -w "Genre=%genre%" -w "Artist=%artist%" -w "Title=%title%" -w "Album=%albumtitle%" -w "Totaldiscs=%totalcds%" -w "Discnumber=%cdnumber%" -w "Year=%year%" -w "Track=%tracknr%" -w "Comment=%comment%" %source% %dest%
Monkey's Audio (APE): %dest% -t "Genre=%genre%" -t "Artist=%artist%" -t "Title=%title%" -t "Album=%albumtitle%" -t "Totaldiscs=%totalcds%" -t "Discnumber=%cdnumber%" -t "Year=%year%" -t "Track=%tracknr%" -t "Comment=%comment%" mac.exe %source% %dest% -c3000
Пример листингов рипа многодискового издания
Лог создания рипа
Exact Audio Copy V1.0 beta 2 from 29. April 2011
EAC extraction logfile from 18. June 2011, 1:33
Chico Freeman and The Fritz Pauer Trio / The Essence Of Silence
Used drive : HL-DT-STDVD-RAM GSA-H55N Adapter: 0 ID: 2
Read mode : Secure
Utilize accurate stream : Yes
Defeat audio cache : Yes
Make use of C2 pointers : No
Read offset correction : 102
Overread into Lead-In and Lead-Out : Yes
Fill up missing offset samples with silence : Yes
Delete leading and trailing silent blocks : No
Null samples used in CRC calculations : Yes
Used interface : Installed external ASPI interface
Gap handling : Appended to previous track
Used output format : User Defined Encoder
Selected bitrate : 128 kBit/s
Quality : High
Add ID3 tag : No
Command line compressor : G:\Program Files\Exact Audio Copy\Encoder\flac.exe
Additional command line options : -V -8 -T "Genre=%genre%" -T "Artist=%artist%" -T "Title=%title%" -T "Album=%albumtitle%" -T "Totaldiscs=%totalcds%" -T "Discnumber=%cdnumber%" -T "Date=%year%" -T "Tracknumber=%tracknr%" -T "Comment=EAC1.0b2 FLAC -8" %sourc
TOC of the extracted CD
Track | Start | Length | Start sector | End sector
---------------------------------------------------------
1 | 0:00.00 | 7:40.06 | 0 | 34505
2 | 7:40.06 | 5:39.36 | 34506 | 59966
3 | 13:19.42 | 9:10.29 | 59967 | 101245
4 | 22:29.71 | 5:25.49 | 101246 | 125669
5 | 27:55.45 | 7:07.59 | 125670 | 157753
6 | 35:03.29 | 5:23.73 | 157754 | 182051
7 | 40:27.27 | 5:39.44 | 182052 | 207520
Track 1
Filename F:\WAV\01 - Enchance.wav
Pre-gap length 0:00:02.00
Peak level 98.8 %
Extraction speed 4.8 X
Track quality 100.0 %
Test CRC D52FBF4F
Copy CRC D52FBF4F
Track not present in AccurateRip database
Copy OK
Track 2
Filename F:\WAV\02 - Helen's Song.wav
Peak level 98.8 %
Extraction speed 5.4 X
Track quality 100.0 %
Test CRC 7824C060
Copy CRC 7824C060
Track not present in AccurateRip database
Copy OK
Track 3
Filename F:\WAV\03 - The Trespasser.wav
Peak level 98.8 %
Extraction speed 6.3 X
Track quality 100.0 %
Test CRC B43C5EF5
Copy CRC B43C5EF5
Track not present in AccurateRip database
Copy OK
Track 4
Filename F:\WAV\04 - The Essence of Silence.wav
Peak level 98.8 %
Extraction speed 6.6 X
Track quality 100.0 %
Test CRC 1422A790
Copy CRC 1422A790
Track not present in AccurateRip database
Copy OK
Track 5
Filename F:\WAV\05 - Shen Shun Song.wav
Peak level 98.8 %
Extraction speed 7.1 X
Track quality 100.0 %
Test CRC 685194A4
Copy CRC 685194A4
Track not present in AccurateRip database
Copy OK
Track 6
Filename F:\WAV\06 - Will I See You in the Morning.wav
Peak level 98.8 %
Extraction speed 7.3 X
Track quality 100.0 %
Test CRC ADCFF5B6
Copy CRC ADCFF5B6
Track not present in AccurateRip database
Copy OK
Track 7
Filename F:\WAV\07 - Minor Relations.wav
Peak level 98.8 %
Extraction speed 5.7 X
Track quality 99.9 %
Test CRC 22B10B58
Copy CRC 22B10B58
Track not present in AccurateRip database
Copy OK
None of the tracks are present in the AccurateRip database
No errors occurred
End of status report
==== Log checksum C3EDFE7A811455F923DF85AF18EF67990516DE9AE5F62F74447881564712360E ====
------------------------------------------------------------
Exact Audio Copy V1.0 beta 2 from 29. April 2011
EAC extraction logfile from 18. June 2011, 1:55
Chico Freeman and The Fritz Pauer Trio / The Essence Of Silence
Used drive : HL-DT-STDVD-RAM GSA-H55N Adapter: 0 ID: 2
Read mode : Secure
Utilize accurate stream : Yes
Defeat audio cache : Yes
Make use of C2 pointers : No
Read offset correction : 102
Overread into Lead-In and Lead-Out : Yes
Fill up missing offset samples with silence : Yes
Delete leading and trailing silent blocks : No
Null samples used in CRC calculations : Yes
Used interface : Installed external ASPI interface
Gap handling : Appended to previous track
Used output format : User Defined Encoder
Selected bitrate : 128 kBit/s
Quality : High
Add ID3 tag : No
Command line compressor : G:\Program Files\Exact Audio Copy\Encoder\flac.exe
Additional command line options : -V -8 -T "Genre=%genre%" -T "Artist=%artist%" -T "Title=%title%" -T "Album=%albumtitle%" -T "Totaldiscs=%totalcds%" -T "Discnumber=%cdnumber%" -T "Date=%year%" -T "Tracknumber=%tracknr%" -T "Comment=EAC1.0b2 FLAC -8" %sourc
TOC of the extracted CD
Track | Start | Length | Start sector | End sector
---------------------------------------------------------
1 | 0:00.00 | 6:40.07 | 0 | 30006
2 | 6:40.07 | 1:24.46 | 30007 | 36352
3 | 8:04.53 | 5:38.28 | 36353 | 61730
4 | 13:43.06 | 5:43.23 | 61731 | 87478
5 | 19:26.29 | 6:59.25 | 87479 | 118928
6 | 26:25.54 | 8:20.06 | 118929 | 156434
7 | 34:45.60 | 11:30.02 | 156435 | 208186
Track 1
Filename F:\WAV\08 - Salsa con Punta.wav
Pre-gap length 0:00:02.00
Peak level 98.8 %
Extraction speed 4.7 X
Track quality 100.0 %
Test CRC 22BD2D56
Copy CRC 22BD2D56
Track not present in AccurateRip database
Copy OK
Track 2
Filename F:\WAV\09 - Epikur Intro.wav
Peak level 90.9 %
Extraction speed 3.9 X
Track quality 100.0 %
Test CRC 94BC358E
Copy CRC 94BC358E
Track not present in AccurateRip database
Copy OK
Track 3
Filename F:\WAV\10 - Epikur Main.wav
Peak level 98.8 %
Extraction speed 5.4 X
Track quality 100.0 %
Test CRC FB6EE3B0
Copy CRC FB6EE3B0
Track not present in AccurateRip database
Copy OK
Track 4
Filename F:\WAV\11 - To Hear a Teardrop in the Rain.wav
Peak level 98.8 %
Extraction speed 5.4 X
Track quality 99.9 %
Test CRC 79C90962
Copy CRC 79C90962
Track not present in AccurateRip database
Copy OK
Track 5
Filename F:\WAV\12 - Dark Blue.wav
Peak level 98.8 %
Extraction speed 6.6 X
Track quality 100.0 %
Test CRC 193260EF
Copy CRC 193260EF
Track not present in AccurateRip database
Copy OK
Track 6
Filename F:\WAV\13 - Drum Chant.wav
Peak level 98.8 %
Extraction speed 7.2 X
Track quality 100.0 %
Test CRC 9B1E3E0C
Copy CRC 9B1E3E0C
Track not present in AccurateRip database
Copy OK
Track 7
Filename F:\WAV\14 - Angel Eyes.wav
Peak level 98.8 %
Extraction speed 6.7 X
Track quality 100.0 %
Test CRC A8FA09B4
Copy CRC A8FA09B4
Track not present in AccurateRip database
Copy OK
None of the tracks are present in the AccurateRip database
No errors occurred
End of status report
==== Log checksum 7C39A967962077E4887D33AE8A295B6AA26FA3B19008E4B42CD44FD87E2F0D6A ====
Содержание индексной карты (.CUE)
CD1
REM GENRE Jazz
REM DATE 2010
REM DISCID 4F0ACE07
REM COMMENT "ExactAudioCopy v1.0b2"
CATALOG 9006317206624
PERFORMER "Chico Freeman and The Fritz Pauer Trio"
TITLE "The Essence Of Silence"
FILE "01 - Enchance.wav" WAVE
TRACK 01 AUDIO
TITLE "Enchance"
PERFORMER "Chico Freeman and The Fritz Pauer Trio"
ISRC ATJ071026601
INDEX 01 00:00:00
FILE "02 - Helen's Song.wav" WAVE
TRACK 02 AUDIO
TITLE "Helen's Song"
PERFORMER "Chico Freeman and The Fritz Pauer Trio"
ISRC ATJ071026602
INDEX 01 00:00:00
FILE "03 - The Trespasser.wav" WAVE
TRACK 03 AUDIO
TITLE "The Trespasser"
PERFORMER "Chico Freeman and The Fritz Pauer Trio"
ISRC ATJ071026603
INDEX 01 00:00:00
FILE "04 - The Essence of Silence.wav" WAVE
TRACK 04 AUDIO
TITLE "The Essence of Silence"
PERFORMER "Chico Freeman and The Fritz Pauer Trio"
ISRC ATJ071026604
INDEX 01 00:00:00
FILE "05 - Shen Shun Song.wav" WAVE
TRACK 05 AUDIO
TITLE "Shen Shun Song"
PERFORMER "Chico Freeman and The Fritz Pauer Trio"
ISRC ATJ071026605
INDEX 01 00:00:00
FILE "06 - Will I See You in the Morning.wav" WAVE
TRACK 06 AUDIO
TITLE "Will I See You in the Morning"
PERFORMER "Chico Freeman and The Fritz Pauer Trio"
ISRC ATJ071026606
INDEX 01 00:00:00
FILE "07 - Minor Relations.wav" WAVE
TRACK 07 AUDIO
TITLE "Minor Relations"
PERFORMER "Chico Freeman and The Fritz Pauer Trio"
ISRC ATJ071026606
INDEX 01 00:00:00
CD2
REM GENRE Jazz
REM DATE 2010
REM DISCID 5F0AD707
REM COMMENT "ExactAudioCopy v1.0b2"
CATALOG 9006317206624
PERFORMER "Chico Freeman and The Fritz Pauer Trio"
TITLE "The Essence Of Silence"
FILE "08 - Salsa con Punta.wav" WAVE
TRACK 01 AUDIO
TITLE "Salsa con Punta"
PERFORMER "Chico Freeman and The Fritz Pauer Trio"
ISRC ATJ071026608
INDEX 01 00:00:00
FILE "09 - Epikur Intro.wav" WAVE
TRACK 02 AUDIO
TITLE "Epikur Intro"
PERFORMER "Chico Freeman and The Fritz Pauer Trio"
ISRC ATJ071026609
INDEX 01 00:00:00
FILE "10 - Epikur Main.wav" WAVE
TRACK 03 AUDIO
TITLE "Epikur Main"
PERFORMER "Chico Freeman and The Fritz Pauer Trio"
ISRC ATJ071026610
INDEX 01 00:00:00
FILE "11 - To Hear a Teardrop in the Rain.wav" WAVE
TRACK 04 AUDIO
TITLE "To Hear a Teardrop in the Rain"
PERFORMER "Chico Freeman and The Fritz Pauer Trio"
ISRC ATJ071026611
INDEX 01 00:00:00
FILE "12 - Dark Blue.wav" WAVE
TRACK 05 AUDIO
TITLE "Dark Blue"
PERFORMER "Chico Freeman and The Fritz Pauer Trio"
ISRC ATJ071026612
INDEX 01 00:00:00
FILE "13 - Drum Chant.wav" WAVE
TRACK 06 AUDIO
TITLE "Drum Chant"
PERFORMER "Chico Freeman and The Fritz Pauer Trio"
ISRC ATJ071026613
INDEX 01 00:00:00
FILE "14 - Angel Eyes.wav" WAVE
TRACK 07 AUDIO
TITLE "Angel Eyes"
PERFORMER "Chico Freeman and The Fritz Pauer Trio"
ISRC ATJ071026614
INDEX 01 00:00:00
Ответы на некоторые вопросы
Почему не нужно сохранять лог снятия для предзазора, не являющегося скрытым музыкальным треком?
Лог снятия предзазора (непрерванная процедура)
Exact Audio Copy V1.0 beta 2 from 29. April 2011
EAC extraction logfile from 29. June 2011, 4:20
Al Di Meola / The Collection
Used drive : HL-DT-STDVD-RAM GSA-H55N Adapter: 0 ID: 2
Read mode : Secure
Utilize accurate stream : Yes
Defeat audio cache : Yes
Make use of C2 pointers : No
Read offset correction : 102
Overread into Lead-In and Lead-Out : Yes
Fill up missing offset samples with silence : Yes
Delete leading and trailing silent blocks : No
Null samples used in CRC calculations : Yes
Used interface : Installed external ASPI interface
Used output format : Internal WAV Routines
Sample format : 44.100 Hz; 16 Bit; Stereo
TOC of the extracted CD
Track | Start | Length | Start sector | End sector
---------------------------------------------------------
1 | 0:00.32 | 9:16.53 | 32 | 41784
2 | 9:17.10 | 9:56.45 | 41785 | 86529
3 | 19:13.55 | 5:16.17 | 86530 | 110246
4 | 24:29.72 | 6:18.30 | 110247 | 138626
5 | 30:48.27 | 5:27.18 | 138627 | 163169
6 | 36:15.45 | 7:25.55 | 163170 | 196599
7 | 43:41.25 | 4:18.42 | 196600 | 215991
8 | 47:59.67 | 3:57.43 | 215992 | 233809
9 | 51:57.35 | 7:02.07 | 233810 | 265466
10 | 58:59.42 | 6:34.25 | 265467 | 295041
11 | 65:33.67 | 5:55.70 | 295042 | 321736
12 | 71:29.62 | 3:44.60 | 321737 | 338596
Track 1, Index 0
Peak level 0.0 %
Extraction speed 0.0 X
Track quality 100.0 %
Copy OK
Track 1, Index 1
Peak level 66.1 %
Extraction speed 5.1 X
Track quality 100.0 %
Copy OK
AccurateRip summary
Track 1 not ripped completely
No tracks could be verified as accurate
No errors occurred
End of status report
==== Log checksum 79A94BFD1CFB64E4376C3787A9FC72D0BE80760589E87C63F2ADEE05C9F59604 ====
Кроме общей информации, которая есть в логе основного снятия рипа, видно только то, что была проведена дополнительная процедура поиндексного снятия данных для первого трека. При этом не выводится имя файла, в который производилось снятие, не производится вычисление CRC, ни какие-либо другие проверки. Информативность такого лога равна нулю. К тому же, если прервать операцию, в логе дополнительно появится сообщение об ошибке, которое может отпугнуть неопытных пользователей. По всем этим соображениям, от записи лога снятия предзазора лучше отказаться.
Зачем предзазор, являющийся скрытым музыкальным треком, снимать дважды?
Некоторые приводы неуверенно читают данные на внутренних дорожках диска. Поскольку для процедуры снятия диапазона, с помощью которой извлекается информация из скрытого трека, в ЕАС не предусмотрен режим протестировать и скопировать, мы, в качестве проверки, моделируем этот режим повторением процедуры. О правильности снятия данных можно судить по идентичным контрольным суммам (CRC) в обоих проходах.
Почему не стоит использовать расширенные строки кодировщиков для рипов однодисковых изданий?
При наличии тэга с номером диска в контейнере, в плейлистах плейеров создаётся дополнительный индекс, который уместен для многодисковых изданий, но для однодисковых не нужен и только перегружает плейлист.
Часто ли встречаются диски c ненулевым предзазором первого трека, скрытым треком?
Всё зависит от издателей дисков, составляющих Вашу коллекцию, у одних издателей диски с "длинным" предзазором встречаются довольно часто, у иных не встречаются вообще. У меня в коллекции, например, таких дисков пара штук на сотню. Диски с предзазором большим 2-х секунд, но не имеющие данных в предзазоре, встречаются гораздо чаще.
Дисков со скрытым в предзазоре музыкальным треком немного. С перечнем таких альбомов можно ознакомиться здесь.
[Профиль]  [ЛС] 

g.y.m.

Admin gray

Стаж: 9 лет 8 месяцев

Сообщений: 11765

g.y.m. · 25-Янв-17 20:04 (спустя 7 лет 5 месяцев)

[Цитировать] 

Как снять точный потрековый рип аудио CD (обсуждение)
[Профиль]  [ЛС] 
 
Тема закрыта
Loading...
Error