[learn.javascript.ru] Полный курс по React.JS [2017, RUS]

Страницы:  1

Ответить
Автор
Сообщение

Satansoft

Стаж: 7 лет 9 месяцев

Сообщений: 63

Satansoft · 08-Окт-17 20:33 (10 месяцев назад, ред. 08-Окт-17 20:56)

Полный курс по React.JS
Год выпуска: 2017
Производитель: learn.javascript.ru
Сайт-исходник: https://coursehunters.net/course/learn-javascript-ru-reactjs
Сайт производителя: https://learn.javascript.ru/courses/react
Автор: Роман Якобчук
Продолжительность: ~9x1:30:00
Тип раздаваемого материала: Видеоурок
Язык: Русский
Описание: В этом курсе мы с вами шаг за шагом пройдем от знакомства с основными идеями до использования самых новых инструментов и инфраструктуры React, на практике будем развивать одностраничное приложение. Начнем с построения простых компонентов, научимся настраивать окружение, поговорим про системы сборки и особенности работы с ES2015 синтаксисом.
Постепенно мы разберем особенности построения SPA с использованием React, будем использовать сторонние компоненты и библиотеки для создания бизнес-логики. Вы в деталях узнаете классическую для React-приложений архитектуру: Unidirectional dataflow, и научитесь строить ее с использованием современной и наиболее популярной реализацией Flux – Redux.js
Курс состоит из 4-х блоков:
  1. Знакомство с React.
  2. Инфраструктура React.
  3. Построение приложений с React: Redux.js.
  4. React для SPA: react-router и продвинутые API Реакта
Файлы примеров: присутствуют
Отчет MediaInfo
Общее
Полное имя : E:\Courses\Javascript\React.JS\[learnjavasctiptru] Полный курс по React.JS\Урок 3.mp4
Формат : MPEG-4
Профиль формата : Base Media
Идентификатор кодека : isom (isom/iso2/avc1/mp41)
Размер файла : 601 Мбайт
Продолжительность : 1 ч. 34 м.
Общий поток : 894 Кбит/сек
Программа кодирования : Lavf57.25.100
Видео
Идентификатор : 1
Формат : AVC
Формат/Информация : Advanced Video Codec
Профиль формата : Baseline@L4
Параметр CABAC формата : Нет
Параметр ReFrames формата : 1 кадр
Идентификатор кодека : avc1
Идентификатор кодека/Информация : Advanced Video Coding
Продолжительность : 1 ч. 34 м.
Битрейт : 694 Кбит/сек
Ширина : 1680 пикселей
Высота : 1048 пикселей
Соотношение сторон : 16:10
Режим частоты кадров : Переменный
Частота кадров : 28,884 кадров/сек
Минимальная частота кадров : 0,833 кадр/сек
Максимальная частота кадров : 30,000 кадров/сек
Цветовое пространство : YUV
Субдискретизация насыщенности : 4:2:0
Битовая глубина : 8 бит
Тип развёртки : Прогрессивная
Бит/(Пиксели*Кадры) : 0.014
Размер потока : 467 Мбайт (78%)
Аудио
Идентификатор : 2
Формат : AAC
Формат/Информация : Advanced Audio Codec
Профиль формата : LC
Идентификатор кодека : 40
Продолжительность : 1 ч. 34 м.
Вид битрейта : Постоянный
Битрейт : 192 Кбит/сек
Каналы : 2 канала
Расположение каналов : Front: L R
Частота : 44,1 КГц
Частота кадров : 43,066 кадра/сек (1024 spf)
Метод сжатия : С потерями
Размер потока : 130 Мбайт (22%)
Default : Да
Alternate group : 1
Скриншоты
Download
Для скачивания .torrent файлов необходима регистрация
Сайт не распространяет и не хранит электронные версии произведений, а лишь предоставляет доступ к создаваемому пользователями каталогу ссылок на торрент-файлы, которые содержат только списки хеш-сумм
[Профиль]  [ЛС] 

амб

Стаж: 7 лет 6 месяцев

Сообщений: 80


амб · 09-Окт-17 00:39 (спустя 4 часа)

[Цитировать] 

v16?
[Профиль]  [ЛС] 

Satansoft

Стаж: 7 лет 9 месяцев

Сообщений: 63

Satansoft · 09-Окт-17 21:08 (спустя 20 часов)

[Цитировать] 

Almighty937 писал(а):
73986164Там ещё скринкаст был по Flux.
Он есть, в архиве с допами.
[Профиль]  [ЛС] 

ngoro7

Стаж: 10 лет 7 месяцев

Сообщений: 12

ngoro7 · 20-Окт-17 18:26 (спустя 10 дней, ред. 20-Окт-17 18:26)

[Цитировать] 

Автор курса очень хорошо все объясняет. Мне понравилось
[Профиль]  [ЛС] 

tyrovski

Стаж: 8 лет 4 месяца

Сообщений: 33


tyrovski · 13-Ноя-17 13:55 (спустя 23 дня, ред. 13-Ноя-17 13:55)

[Цитировать] 

Есть интересный курс на [Udemy] Build an e-learning website using React and Redux - https://www.udemy.com/build-an-e-learning-website-using-react-and-redux/
Научиться строить веб-сайт электронного обучения(e-learning) с использованием фреймворков JavaScript - React.js и Redux.js
Рассматриваются технологии:
knowledge of React and Redux
knowledge of Javascript ES6
knowledge of Jquery and Bootstrap
knowledge of Mongo DB and Mongoose
Если вы хотите научиться создавать современные веб-приложения(web-системы), вам необходим нужный и актуальный материал для практических примеров создания прикладного интерфейса - API приложения. Этот курс содержит практический рабочий код реальной(живой) веб-разработки приложения. Вы сможете использовать его как работу в своем портфолио.
Осваиваются популярные техники, технологии и фреймворки - React.js, Redux.js. Показан компонентный подход при разработке приложения, используются нужные npm-пакеты. В курсе используются последние наработки языка JavaScript - ES6(ES7), ведется разработка в новых функциях и классах. Использование React.js и Redux.js, позволяет вам гибко использовать компоненты классов при разработке веб-системы.
[Профиль]  [ЛС] 

citizen92

Стаж: 7 лет 6 месяцев

Сообщений: 100


citizen92 · 27-Ноя-17 23:02 (спустя 14 дней)

[Цитировать] 

tyrovski писал(а):
74225009Есть интересный курс на [Udemy] Build an e-learning website using React and Redux - https://www.udemy.com/build-an-e-learning-website-using-react-and-redux/
Научиться строить веб-сайт электронного обучения(e-learning) с использованием фреймворков JavaScript - React.js и Redux.js
Рассматриваются технологии:
knowledge of React and Redux
knowledge of Javascript ES6
knowledge of Jquery and Bootstrap
knowledge of Mongo DB and Mongoose
Если вы хотите научиться создавать современные веб-приложения(web-системы), вам необходим нужный и актуальный материал для практических примеров создания прикладного интерфейса - API приложения. Этот курс содержит практический рабочий код реальной(живой) веб-разработки приложения. Вы сможете использовать его как работу в своем портфолио.
Осваиваются популярные техники, технологии и фреймворки - React.js, Redux.js. Показан компонентный подход при разработке приложения, используются нужные npm-пакеты. В курсе используются последние наработки языка JavaScript - ES6(ES7), ведется разработка в новых функциях и классах. Использование React.js и Redux.js, позволяет вам гибко использовать компоненты классов при разработке веб-системы.
вы проходили уже?
[Профиль]  [ЛС] 

Jhonlion

Стаж: 9 лет 9 месяцев

Сообщений: 242

Jhonlion · 12-Янв-18 04:20 (спустя 1 месяц 14 дней)

[Цитировать] 

а где взять скринкаст по Redux? в 4 уроке Роман обещал его скинуть
[Профиль]  [ЛС] 

Алекс201989

Стаж: 7 лет 7 месяцев

Сообщений: 3


Алекс201989 · 15-Янв-18 00:29 (спустя 2 дня 20 часов)

[Цитировать] 

Согласен, нет курса по Redux(
[Профиль]  [ЛС] 

UniBreakfast

Стаж: 11 лет 5 месяцев

Сообщений: 51

UniBreakfast · 15-Июл-18 11:39 (спустя 6 месяцев)

[Цитировать] 

Продолжительность туманно указана. Разве так можно? Мою тему держали в недооформленных, пока я это не уладил. )
[Профиль]  [ЛС] 

амб

Стаж: 7 лет 6 месяцев

Сообщений: 80


амб · 17-Июл-18 13:58 (спустя 2 дня 2 часа)

[Цитировать] 

понимаю, что регламент есть регламент, однако же занятно представить будущего программиста, не способного перемножить девять на полтора.
[Профиль]  [ЛС] 
 
Ответить
Loading...
Error