Мотореставрация / Philly Throttle / Сезон 1 / Серии 1-3 [2013, США, Документальный, HDTVRip 720p]

Страницы:  1

Ответить
Автор
Сообщение

8non8

Стаж: 9 лет 10 месяцев

Сообщений: 173

8non8 · 21-Мар-15 15:20 (3 года 1 месяц назад, ред. 21-Мар-15 19:21)

Мотореставрация / Philly Throttle
Страна: США
Режиссер: Ян Арвас
Жанр: Документальный
Дата выпуска: 2013
Продолжительность: 42:30 (3 серии)
Перевод: Профессиональный (одноголосый закадровый) - Discovery
Описание: Рассказ об Адаме Крамере и его гараже-мастерской «Liberty Vintage Cycles», расположенной в Филадельфии. Вместе с командой первоклассных механиков Адам занимается любимым делом: ремонтирует и реставрирует мотоциклы.
Дополнительная информация:
Видео взято с зарубежного сайта, за него большая благодарность БэстЛайв. Присутствует немного сцен без перевода - они не показывались на русском Discovery.
В папке Deleted Scenes находятся сцены, которые не были показаны на американском Discovery. Данные сцены имеют русскую озвучку.
Всего вышел один сезон, состоящий из трех серий.
Сэмпл: http://multi-up.com/1039536
Качество видео: HDTVRip
Формат видео: MKV
Видео: AVC, 1280x720, 16:9, 2 935 Kbps, 29.970 fps
Аудио 1: Russian, AC-3, 192 Kbps, 48.0 kHz, 2 channels
Аудио 2: English, AC-3, 384 Kbps, 48.0 kHz, 6 channels
MediaInfo
General
Unique ID : 253119120282760591428811690252881390735 (0xBE6CF825AE1965CA9F9802F65D346C8F)
Complete name : C:\Files\uTorrent\Files-Finish\Мотореставрация\Philly.Throttle.S01E01.HDTV.720p.x264.mkv
Format : Matroska
Format version : Version 2
File size : 1.10 GiB
Duration : 42mn 30s
Overall bit rate : 3 706 Kbps
Encoded date : UTC 2014-04-07 15:38:05
Writing application : mkvmerge v6.3.0 ('You can't stop me!') built on Jun 28 2013 20:09:41
Writing library : libebml v1.3.0 + libmatroska v1.4.0
Video
ID : 1
Format : AVC
Format/Info : Advanced Video Codec
Format profile : High@L4.1
Format settings, CABAC : Yes
Format settings, ReFrames : 5 frames
Codec ID : V_MPEG4/ISO/AVC
Duration : 42mn 30s
Bit rate : 3 056 Kbps
Width : 1 280 pixels
Height : 720 pixels
Display aspect ratio : 16:9
Frame rate mode : Constant
Frame rate : 29.970 fps
Color space : YUV
Chroma subsampling : 4:2:0
Bit depth : 8 bits
Scan type : Progressive
Bits/(Pixel*Frame) : 0.111
Stream size : 929 MiB (82%)
Writing library : x264 core 133 r2334 a3ac64b
Encoding settings : cabac=1 / ref=5 / deblock=1:0:0 / analyse=0x3:0x113 / me=umh / subme=8 / psy=1 / psy_rd=1.00:0.00 / mixed_ref=1 / me_range=16 / chroma_me=1 / trellis=1 / 8x8dct=1 / cqm=0 / deadzone=21,11 / fast_pskip=1 / chroma_qp_offset=-2 / threads=18 / lookahead_threads=3 / sliced_threads=0 / nr=0 / decimate=1 / interlaced=0 / bluray_compat=0 / constrained_intra=0 / bframes=3 / b_pyramid=2 / b_adapt=2 / b_bias=0 / direct=3 / weightb=1 / open_gop=0 / weightp=2 / keyint=250 / keyint_min=25 / scenecut=40 / intra_refresh=0 / rc_lookahead=50 / rc=crf / mbtree=1 / crf=20.0 / qcomp=0.60 / qpmin=0 / qpmax=69 / qpstep=4 / ip_ratio=1.40 / aq=1:1.00
Language : English
Default : Yes
Forced : No
Matrix coefficients : BT.709
Audio #1
ID : 2
Format : AC-3
Format/Info : Audio Coding 3
Mode extension : CM (complete main)
Format settings, Endianness : Big
Codec ID : A_AC3
Duration : 42mn 30s
Bit rate mode : Constant
Bit rate : 192 Kbps
Channel(s) : 2 channels
Channel positions : Front: L R
Sampling rate : 48.0 KHz
Bit depth : 16 bits
Compression mode : Lossy
Stream size : 58.4 MiB (5%)
Title : Discovery
Language : Russian
Default : Yes
Forced : No
Audio #2
ID : 3
Format : AC-3
Format/Info : Audio Coding 3
Mode extension : CM (complete main)
Format settings, Endianness : Big
Codec ID : A_AC3
Duration : 42mn 30s
Bit rate mode : Constant
Bit rate : 384 Kbps
Channel(s) : 6 channels
Channel positions : Front: L C R, Side: L R, LFE
Sampling rate : 48.0 KHz
Bit depth : 16 bits
Compression mode : Lossy
Stream size : 117 MiB (10%)
Title : Original
Language : English
Default : No
Forced : No
Список серий
S01E01 - Extinguish the light / Тушите свет
S01E02 - Under the guidance / Под чутким руководством
S01E03 - Motor Slo / Мотор Сло
Скриншоты
Download
Для скачивания .torrent файлов необходима регистрация
Сайт не распространяет и не хранит электронные версии произведений, а лишь предоставляет доступ к создаваемому пользователями каталогу ссылок на торрент-файлы, которые содержат только списки хеш-сумм
[Профиль]  [ЛС] 

shorinstoun

Стаж: 8 лет 9 месяцев

Сообщений: 7


shorinstoun · 16-Окт-16 20:11 (спустя 1 год 6 месяцев)

[Цитировать] 

Дайте пожалуйста раздачу с часа ночи, у нас безлимит по мобильному интернету. Заранее благодарю!
[Профиль]  [ЛС] 

mak_don

Стаж: 7 лет 3 месяца

Сообщений: 15

mak_don · 10-Июн-17 14:09 (спустя 7 месяцев)

[Цитировать] 

а еще есть сезоны или хотя бы серии?
[Профиль]  [ЛС] 

jersei

Top Seed 03* 160r

Стаж: 9 лет 3 месяца

Сообщений: 840

jersei · 01-Апр-18 17:45 (спустя 9 месяцев, ред. 16-Апр-18 17:09)

[Цитировать] 

А что с сидами??? Ау!!!
Спасибо за фильм, побольше б таких раздач.
[Профиль]  [ЛС] 
 
Ответить
Loading...
Error