Пуля-Дура. Агент для наследницы / Сезон 3 / Серии: 1-4 из 4 (Валерий Чиков) [2009, Детектив, DVB]

Страницы:  1

Ответить
Автор
Сообщение

Серый1779

Top Seed 07* 2560r

Стаж: 8 лет 3 месяца

Сообщений: 7853

Серый1779 · 17-Апр-13 12:08 (5 лет 3 месяца назад, ред. 18-Апр-13 01:22)

Пуля-Дура. Агент для наследницы
Год выпуска: 2009
Производство: Фаворит-фильм, по заказу студии Телепроект
Жанр: Детектив
Продолжительность: ~0:42:00 серия
Субтитры: Украинские (вшитые)
Режиссёр: Валерий Чиков
В ролях: Сергей Горобченко, Вера Александрова, Игорь Гордин, Ольга Семина, Иван Охлобыстин, Сергей Фролов, Анастасия Цветаева, Жанна Эппле и другие.

Описание: Бывший суперагент, а ныне - частный детектив Уточкин берется за дела любой сложности, если в них замешана прекрасная незнакомка. Вот и на этот раз он отправляется на поиски очередного приключения. Удастся ли ему снова выйти сухим из воды? В третьем сезоне Стас будет спасать вдову владельца металургического комбината. Противостояние будет настолько острым, что братья объединят все свои усилия на это расследование. Оказывается, что за попыткой покушением стоит нечто большее, нежели просто желание получить контроль над большим предприятием.
Всего в 3-м сезоне 4 серии.
Стас Уточкин спасает от смерти вдову владельца металлургического комбината. Противостояние настолько острое, что Стас и Боб Уточкины объединяют свои усилия. За серией покушений стоит нечто большее, чем просто желание заполучить контроль над крупным предприятием. Таинственной международной организации нужны химикаты стратегической важности, выпускаемые на металлургическом комбинате. Конечный потребитель – одна из африканских стран. Но в жестокой борьбе братья опять выходят победителями.
Все раздачи сериала: Пуля-Дура. Агент для наследницы

Качество: DVB
Формат: MPEG
Видео кодек: MPEG2
Аудио кодек: MPEG1
Видео: MPEG2 Video 768х576 @ 720x576 (4:3) 25.00fps ~4463 Kbps (0.44 bit/pixel)
Аудио: MPEG Audio 48000Hz 1 channels 192 Кбит/сек
Сторонней рекламы нет!
MediaInfo
Общее
Полное имя : G:\ФИЛЬМЫ\Пуля дура-3 Агент для наследницы DVB\Пуля_дура_3_Агент_для_наследницы_01_серия_DVB_by_Серый1779.mpg
Формат : MPEG-PS
Размер файла : 1,36 Гбайт
Продолжительность : 41 м.
Режим общего битрейта : Переменный
Общий поток : 4749 Кбит/сек
Видео
Идентификатор : 224 (0xE0)
Формат : MPEG Video
Версия формата : Version 2
Профиль формата : Main@Main
Параметр BVOP формата : Да
Параметр матрицы формата : Выборочная
Параметр GOP формата : Variable
Продолжительность : 41 м.
Вид битрейта : Переменный
Битрейт : 4462 Кбит/сек
Максимальный битрейт : 15,0 Мбит/сек
Ширина : 720 пикселей
Высота : 576 пикселей
Соотношение сторон : 4:3
Частота кадров : 25,000 кадров/сек
Стандарт вещания : PAL
Цветовое пространство : YUV
Субдискретизация насыщенности : 4:2:0
Битовая глубина : 8 бит
Тип развёртки : Чересстрочная
Порядок развёртки : Верхнее поле первое
Метод сжатия : С потерями
Бит/(Пиксели*Кадры) : 0.430
Размер потока : 1,28 Гбайт (94%)
Аудио
Идентификатор : 192 (0xC0)
Формат : MPEG Audio
Версия формата : Version 1
Профиль формата : Layer 2
Продолжительность : 41 м.
Вид битрейта : Постоянный
Битрейт : 192 Кбит/сек
Каналы : 1 канал
Частота : 48,0 КГц
Метод сжатия : С потерями
Размер потока : 56,4 Мбайт (4%)
Запись и монтаж:
Раздача группы:
Внимание ! Раздача ведётся путём добавления новых серий
Внимание! Раздача ведётся путём добавления новых серий; при каждом добавлении создётся новый торрент. Чтобы начать докачку новой серии, пользователям необходимо сделать следующее:
(1) остановить скачивание,
(2) удалить старый торрент у себя из клиента (старые серии удалять не надо),
(3) скачать новый торрент и запустить его у себя в клиенте вместо старого, при этом указать клиенту путь в старую папку куда и должно происходить скачивание новых серий.
Ваш клиент при этом должен произвести хеширование (проверку) старой папки (если не производит сам - помогите ему сделать это), и будет докачивать только те серии которых у вас ещё нет. Старые серии при этом не удаляются, а продолжают раздаваться!
Eсли вы уже удалили старые серии, то предотвратить повторную закачку старых серий можно, отжав галочку в соответсвующих местах при запуске нового торрента. По возможности, желательно не удалять старые серии как можно дольше чтобы релизёр не столько продолжал раздавать старые серии, а смог сконцентрироваться на новых.
ВНИМАНИЕ! ТОРРЕНТ ПЕРЕЗАЛИТ! ДОБАВЛЕНА 3-ая - 4-ая СЕРИИ!
Скриншоты
Download
Для скачивания .torrent файлов необходима регистрация
Сайт не распространяет и не хранит электронные версии произведений, а лишь предоставляет доступ к создаваемому пользователями каталогу ссылок на торрент-файлы, которые содержат только списки хеш-сумм
[Профиль]  [ЛС] 

Серый1779

Top Seed 07* 2560r

Стаж: 8 лет 3 месяца

Сообщений: 7853

Серый1779 · 18-Апр-13 01:23 (спустя 13 часов)

[Цитировать] 

ОБНОВЛЯЕМСЯ!!!
ДОБАВЛЕНЫ 3-ая - 4-ая СЕРИИ!!!
[Профиль]  [ЛС] 
 
Ответить
Loading...
Error