Пуля-дура. Агент и сокровище нации / Сезон: 4 Серии: 1-4 из 4 (Владимир Дмитриевский) [2010, детектив, DVD9]

Страницы:  1

Ответить
Автор
Сообщение

Gahan Dave

Top Seed 06* 1280r

Стаж: 10 лет 1 месяц

Сообщений: 3514

Gahan Dave · 09-Апр-12 19:14 (6 лет 4 месяца назад, ред. 09-Апр-12 20:45)

Пуля-дура. Агент и сокровище нации

Год выпуска: 2010
Производство: Продюсерский центр "Про100фильм" по заказу ООО "Телепроект"
Дистрибьютор: «Lizard Cinema Trade»
Жанр: детектив
Продолжительность: 4 х ~ 00:44:00
Субтитры: нет
Режиссёр: Владимир Дмитриевский
В ролях:
Сергей Горобченко, Григорий Антипенко, Борис Щербаков, Людмила Гаврилова, Марьяна Спивак,
Андрей Абашкин, Василий Зотов, Владимир Капустин, Виталий Альшанский, Ольга Стрелецкая,
Роман Шаляпин, Сергей Пиоро
Описание:
У частного детектива Боба Уточкина и его напарника Сержа Волкова новое расследование. Им предстоит распутать очередной клубок преступлений — установить связь между молодым подающим надежды физиком, гражданином Камбоджи и криминальным авторитетом из Сибири; найти документы, проливающие свет на исчезновение в начале прошлого века, так называемого, золота Колчака; предотвратить утечку результатов технических разработок, представляющих огромный интерес для террористической группировки.
Все раздачи сериала
Качество: DVD9
Формат: DVD-Video

Видео: PAL 4:3 (720x576) VBR
Аудио: Russian (Dolby AC3, 2 ch) 192 Kbps
MediaInfo
General
Complete name : G:\Пуля-дура 4. Агент и сокровище нации (4 серии из 4)\VIDEO_TS\VTS_03_1.VOB
Format : MPEG-PS
File size : 1 024 MiB
Duration : 25mn 29s
Overall bit rate : 5 614 Kbps
Video
ID : 224 (0xE0)
Format : MPEG Video
Format version : Version 2
Format profile : Main@Main
Format settings, BVOP : Yes
Format settings, Matrix : Default
Duration : 25mn 29s
Bit rate mode : Variable
Bit rate : 5 310 Kbps
Nominal bit rate : 8 000 Kbps
Width : 720 pixels
Height : 576 pixels
Display aspect ratio : 4:3
Frame rate : 25.000 fps
Standard : PAL
Color space : YUV
Chroma subsampling : 4:2:0
Bit depth : 8 bits
Scan type : Interlaced
Scan order : Top Field First
Bits/(Pixel*Frame) : 0.512
Stream size : 968 MiB (95%)
Audio
ID : 128 (0x80)
Format : AC-3
Format/Info : Audio Coding 3
Mode extension : CM (complete main)
Duration : 25mn 29s
Bit rate mode : Constant
Bit rate : 192 Kbps
Channel(s) : 2 channels
Channel positions : Front: L R
Sampling rate : 48.0 KHz
Bit depth : 16 bits
Stream size : 35.0 MiB (3%)
Menu
DVDInfo
Size: 7.23 Gb ( 7 576 152 KBytes ) - DVD-9
Enabled regions: 1, 2, 3, 4, 5, 6, 7, 8
VTS_01 :
Play Length: 00:00:25
Video: PAL 4:3 (720x576) VBR
Audio:
Russian (Dolby AC3, 6 ch)
English (Dolby AC3, 6 ch)
English (Dolby AC3, 6 ch)
VTS_02 :
Play Length: 00:44:03
Video: PAL 4:3 (720x576) VBR
Audio:
Russian (Dolby AC3, 2 ch)
VTS_03 :
Play Length: 00:44:00
Video: PAL 4:3 (720x576) VBR
Audio:
Russian (Dolby AC3, 2 ch)
VTS_04 :
Play Length: 00:44:02
Video: PAL 4:3 (720x576) VBR
Audio:
Russian (Dolby AC3, 2 ch)
VTS_05 :
Play Length: 00:44:03
Video: PAL 4:3 (720x576) VBR
Audio:
Russian (Dolby AC3, 2 ch)
Menu Video:
PAL 4:3 (720x576) VBR
Menu Subtitles:
Not specified
Menu English Language Unit :
Root Menu
Chapter (PTT) Menu
Audio #1: AC3, 2/0 ch, 192Kbps, Delay 0 mSec
Скриншоты меню
Скриншоты сериала

Раздаю до первых 5-ти скачавших, днём 8 Mb/s, ночью 20 Mb/s ,на раздачи не возвращаюсь...
Download
Для скачивания .torrent файлов необходима регистрация
Сайт не распространяет и не хранит электронные версии произведений, а лишь предоставляет доступ к создаваемому пользователями каталогу ссылок на торрент-файлы, которые содержат только списки хеш-сумм
[Профиль]  [ЛС] 

kostik184

VIP (Заслуженный)

Стаж: 10 лет 11 месяцев

Сообщений: 2093

kostik184 · 09-Апр-12 20:10 (спустя 56 мин.)

[Цитировать] 

Gahan Dave писал(а):
Пуля-дура 4. Агент и сокровище нации / Сезон: 1 Серии: 4 из 4 (Владимир Дмитриевский) [2010, детектив, DVD9]
я так понимаю это четвертый сезон должен быть...
и ссылку лучше сделать на поиск всех раздач "Пуля-дура"
[Профиль]  [ЛС] 

Gahan Dave

Top Seed 06* 1280r

Стаж: 10 лет 1 месяц

Сообщений: 3514

Gahan Dave · 09-Апр-12 20:16 (спустя 5 мин.)

[Цитировать] 

а как ссылку делать если в разделе с этим фильмом кто в лес кто по дрова...
[Профиль]  [ЛС] 

kostik184

VIP (Заслуженный)

Стаж: 10 лет 11 месяцев

Сообщений: 2093

kostik184 · 09-Апр-12 20:48 (спустя 31 мин.)

[Цитировать] 

Gahan Dave писал(а):
а как ссылку делать если в разделе с этим фильмом кто в лес кто по дрова...
подправил заголовки остальных раздач под один формат
[Профиль]  [ЛС] 

Gahan Dave

Top Seed 06* 1280r

Стаж: 10 лет 1 месяц

Сообщений: 3514

Gahan Dave · 09-Апр-12 20:59 (спустя 10 мин.)

[Цитировать] 

вот это дело...
только лучше думаю чтобы заголовок был без цифр,так же как в меню диска и на озоне тоже
а цифры видны в названии сезона
[Профиль]  [ЛС] 

Burzhuj

Стаж: 11 лет 6 месяцев

Сообщений: 324

Burzhuj · 09-Апр-12 21:38 (спустя 39 мин.)

[Цитировать] 

5 часть есть?
[Профиль]  [ЛС] 

Gahan Dave

Top Seed 06* 1280r

Стаж: 10 лет 1 месяц

Сообщений: 3514

Gahan Dave · 10-Авг-12 22:53 (спустя 4 месяца 1 день, ред. 11-Авг-12 23:20)

[Цитировать] 

ну чо кто скачал все в ауте ?
пришлось выкачивать заново и встать на раздачу
кто на хранение возьмет?
[Профиль]  [ЛС] 
 
Ответить
Loading...
Error